Kingsman The Secret Service (2015) REMUX 4K HDR Latino – CMHDD

49 vistas
1 estrella2 estrellas3 estrellas4 estrellas5 estrellas (Ninguna valoración todavía)
Cargando...

Información de Kingsman The Secret Service (2015) REMUX 4K HDR Latino – CMHDD

Datos de la película

  • Calidad: 4K HDR
  • Audio: Español Latino AC3 5.1 BLURAY - Ingles DTS-HD Master 7.1 BLURAY
  • Subtitulos: Español Latino PGS
  • Resolución: 3840x2140p
  • Formato: MKV
  • Codec: HEVC
  • Encoder: Dracarys
  • Mediainfo: Clic para Mostrar Datos Ver
  • Format                      : Matroska
    Format version              : Version 4
    File size                   : 45.5 GiB
    Duration                    : 2 h 8 min
    Overall bit rate mode       : Variable
    Overall bit rate            : 50.5 Mb/s
    Movie name                  : Kingsman: The Secret Service (2015) REMUX 4K HDR Latino - CMHDD
    Encoded date                : UTC 2021-07-16 06:47:16
    Writing application         : mkvmerge v56.1.0 ('My Friend') 64-bit
    Writing library             : libebml v1.4.2 + libmatroska v1.6.4
    Cover                       : Yes
    Attachments                 : cover.jpg

    Video
    ID                          : 1
    Format                      : HEVC
    Format/Info                 : High Efficiency Video Coding
    Format profile              : Main 10@L5.1@High
    HDR format                  : SMPTE ST 2086, HDR10 compatible
    Codec ID                    : V_MPEGH/ISO/HEVC
    Duration                    : 2 h 8 min
    Bit rate                    : 45.2 Mb/s
    Width                       : 3 840 pixels
    Height                      : 2 160 pixels
    Display aspect ratio        : 16:9
    Frame rate mode             : Constant
    Frame rate                  : 23.976 (24000/1001) FPS
    Color space                 : YUV
    Chroma subsampling          : 4:2:0 (Type 2)
    Bit depth                   : 10 bits
    Bits/(Pixel*Frame)          : 0.227
    Stream size                 : 40.6 GiB (89%)
    Writing library             : ATEME Titan KFE 3.7.3 (4.7.3.1001)
    Default                     : Yes
    Forced                      : No
    Color range                 : Limited
    Color primaries             : BT.2020
    Transfer characteristics    : PQ
    Matrix coefficients         : BT.2020 non-constant
    Mastering display color pri : Display P3
    Mastering display luminance : min: 0.0000 cd/m2, max: 1100 cd/m2

    Audio #1
    ID                          : 2
    Format                      : DTS ES XLL
    Format/Info                 : Digital Theater Systems
    Commercial name             : DTS-HD Master Audio
    Codec ID                    : A_DTS
    Duration                    : 2 h 8 min
    Bit rate mode               : Variable
    Bit rate                    : 4 935 kb/s
    Channel(s)                  : 8 channels
    Channel layout              : C L R Ls Rs LFE Lb Rb
    Sampling rate               : 48.0 kHz
    Frame rate                  : 93.750 FPS (512 SPF)
    Bit depth                   : 24 bits
    Compression mode            : Lossless
    Stream size                 : 4.44 GiB (10%)
    Language                    : English
    Default                     : No
    Forced                      : No

    Audio #2
    ID                          : 3
    Format                      : AC-3
    Format/Info                 : Audio Coding 3
    Commercial name             : Dolby Digital
    Codec ID                    : A_AC3
    Duration                    : 2 h 8 min
    Bit rate mode               : Constant
    Bit rate                    : 448 kb/s
    Channel(s)                  : 6 channels
    Channel layout              : L R C LFE Ls Rs
    Sampling rate               : 48.0 kHz
    Frame rate                  : 31.250 FPS (1536 SPF)
    Compression mode            : Lossy
    Stream size                 : 413 MiB (1%)
    Language                    : Spanish
    Service kind                : Complete Main
    Default                     : Yes
    Forced                      : No

    Text
    ID                          : 4
    Format                      : PGS
    Muxing mode                 : zlib
    Codec ID                    : S_HDMV/PGS
    Codec ID/Info               : Picture based subtitle format used on BDs/HD-DVDs
    Duration                    : 2 h 8 min
    Bit rate                    : 33.1 kb/s
    Count of elements           : 3206
    Stream size                 : 30.4 MiB (0%)
    Language                    : Spanish
    Default                     : No
    Forced                      : No

    Menu
    00:00:00.000                : Chapter 01
    00:02:55.466                : Chapter 02
    00:04:50.665                : Chapter 03
    00:08:34.180                : Chapter 04
    00:11:49.875                : Chapter 05
    00:13:04.575                : Chapter 06
    00:15:57.998                : Chapter 07
    00:18:25.979                : Chapter 08
    00:23:48.051                : Chapter 09
    00:25:37.327                : Chapter 10
    00:29:53.750                : Chapter 11
    00:32:25.276                : Chapter 12
    00:33:47.900                : Chapter 13
    00:37:01.469                : Chapter 14
    00:38:49.618                : Chapter 15
    00:42:46.021                : Chapter 16
    00:45:03.867                : Chapter 17
    00:47:42.276                : Chapter 18
    00:53:47.557                : Chapter 19
    00:57:28.194                : Chapter 20
    01:03:29.514                : Chapter 21
    01:05:21.876                : Chapter 22
    01:10:27.932                : Chapter 23
    01:13:10.219                : Chapter 24
    01:15:01.955                : Chapter 25
    01:16:58.196                : Chapter 26
    01:23:03.812                : Chapter 27
    01:25:57.402                : Chapter 28
    01:31:21.309                : Chapter 29
    01:34:38.798                : Chapter 30
    01:36:27.948                : Chapter 31
    01:39:59.993                : Chapter 32
    01:44:07.866                : Chapter 33
    01:50:31.082                : Chapter 34
    01:58:21.219                : Chapter 35
    01:59:38.462                : Chapter 36

  • Peso: 45.5 GiB

Sinopsis

Un veterano agente secreto inglés (Colin Firth) debe entrenar a un joven sin refinar (Taron Egerton), pero que promete convertirse en un competitivo agente gracias a un ultra-programa de entrenamiento, al mismo tiempo que una amenaza global emerge procedente de un genio retorcido. Adaptación del cómic de Mark Millar y Dave Gibbons.

Ficha técnica

Video trailer de la película

Enlaces de descarga

Rip de Bluray

Descargar Kingsman The Secret Service (2015) REMUX 4K HDR Latino – CMHDD


Aportes de DPeliculasHDmega la pass es:dpeliculashdmega.org Aportes de CinemaniaHD la pass es:cinemaniahdd.com
Guardado en : Acción , Aventura , Comedia , Crimen

Películas relacionadas

Kingsman The Secret Service (2015) REMUX 4K HDR Latino – CMHDD pelicula full hd, Kingsman The Secret Service (2015) REMUX 4K HDR Latino – CMHDD mega latino, Kingsman The Secret Service (2015) REMUX 4K HDR Latino – CMHDD 4k latino, Kingsman The Secret Service (2015) REMUX 4K HDR Latino – CMHDD pelicula completa, Kingsman The Secret Service (2015) REMUX 4K HDR Latino – CMHDD descargar gratis, descargar Kingsman The Secret Service (2015) REMUX 4K HDR Latino – CMHDD pelicula latino, Kingsman The Secret Service (2015) REMUX 4K HDR Latino – CMHDD 1 link mega, Kingsman The Secret Service (2015) REMUX 4K HDR Latino – CMHDD 1 link google drive, Kingsman The Secret Service (2015) REMUX 4K HDR Latino – CMHDD hd 1080p latino.