Kingsman The Golden Circle (2017) REMUX 4K HDR Latino – CMHDD

49 vistas
1 estrella2 estrellas3 estrellas4 estrellas5 estrellas (Ninguna valoración todavía)
Cargando...

Información de Kingsman The Golden Circle (2017) REMUX 4K HDR Latino – CMHDD

Datos de la película

  • Calidad: 4K HDR
  • Audio: Se especifica abajo de la Sinopsis
  • Subtitulos: Español Latino PGS
  • Resolución: 3840x2140p
  • Formato: MKV
  • Codec: HEVC
  • Encoder: Dracarys
  • Mediainfo: Clic para Mostrar Datos Ver
  • Format                      : Matroska
    Format version              : Version 4
    File size                   : 42.0 GiB
    Duration                    : 2 h 21 min
    Overall bit rate mode       : Variable
    Overall bit rate            : 42.6 Mb/s
    Movie name                  : Kingsman The Golden Circle (2017) REMUX 4K HDR Latino - CMHDD
    Encoded date                : UTC 2021-07-16 07:04:07
    Writing application         : mkvmerge v56.1.0 ('My Friend') 64-bit
    Writing library             : libebml v1.4.2 + libmatroska v1.6.4
    Cover                       : Yes
    Attachments                 : cover.jpg

    Video
    ID                          : 1
    ID in the original source m : 4113 (0x1011)
    Format                      : HEVC
    Format/Info                 : High Efficiency Video Coding
    Format profile              : Main 10@L5.1@High
    HDR format                  : SMPTE ST 2086, HDR10 compatible
    Codec ID                    : V_MPEGH/ISO/HEVC
    Duration                    : 2 h 21 min
    Bit rate                    : 36.0 Mb/s
    Width                       : 3 840 pixels
    Height                      : 2 160 pixels
    Display aspect ratio        : 16:9
    Frame rate mode             : Constant
    Frame rate                  : 23.976 (24000/1001) FPS
    Color space                 : YUV
    Chroma subsampling          : 4:2:0 (Type 2)
    Bit depth                   : 10 bits
    Bits/(Pixel*Frame)          : 0.181
    Stream size                 : 35.5 GiB (85%)
    Writing library             : ATEME Titan File 3.8.3 (4.8.3.0)        
    Default                     : Yes
    Forced                      : No
    Color range                 : Limited
    Color primaries             : BT.2020
    Transfer characteristics    : PQ
    Matrix coefficients         : BT.2020 non-constant
    Mastering display color pri : Display P3
    Mastering display luminance : min: 0.0050 cd/m2, max: 1000 cd/m2
    Original source medium      : Blu-ray

    Audio #1
    ID                          : 2
    ID in the original source m : 4352 (0x1100)
    Format                      : MLP FBA 16-ch
    Format/Info                 : Meridian Lossless Packing FBA with 16-channel presentation
    Commercial name             : Dolby TrueHD with Dolby Atmos
    Codec ID                    : A_TRUEHD
    Duration                    : 2 h 21 min
    Bit rate mode               : Variable
    Bit rate                    : 5 421 kb/s
    Maximum bit rate            : 9 927 kb/s
    Channel(s)                  : 8 channels
    Channel layout              : L R C LFE Ls Rs Lb Rb
    Sampling rate               : 48.0 kHz
    Frame rate                  : 1 200.000 FPS (40 SPF)
    Compression mode            : Lossless
    Stream size                 : 5.34 GiB (13%)
    Language                    : English
    Default                     : No
    Forced                      : No
    Original source medium      : Blu-ray
    Number of dynamic objects   : 13
    Bed channel count           : 1 channel
    Bed channel configuration   : LFE

    Audio #2
    ID                          : 3
    ID in the original source m : 4352 (0x1100)
    Format                      : AC-3
    Format/Info                 : Audio Coding 3
    Commercial name             : Dolby Digital
    Codec ID                    : A_AC3
    Duration                    : 2 h 21 min
    Bit rate mode               : Constant
    Bit rate                    : 640 kb/s
    Channel(s)                  : 6 channels
    Channel layout              : L R C LFE Ls Rs
    Sampling rate               : 48.0 kHz
    Frame rate                  : 31.250 FPS (1536 SPF)
    Compression mode            : Lossy
    Stream size                 : 646 MiB (2%)
    Language                    : English
    Service kind                : Complete Main
    Default                     : No
    Forced                      : No
    Original source medium      : Blu-ray

    Audio #3
    ID                          : 4
    ID in the original source m : 4354 (0x1102)
    Format                      : AC-3
    Format/Info                 : Audio Coding 3
    Commercial name             : Dolby Digital
    Codec ID                    : A_AC3
    Duration                    : 2 h 21 min
    Bit rate mode               : Constant
    Bit rate                    : 448 kb/s
    Channel(s)                  : 6 channels
    Channel layout              : L R C LFE Ls Rs
    Sampling rate               : 48.0 kHz
    Frame rate                  : 31.250 FPS (1536 SPF)
    Compression mode            : Lossy
    Stream size                 : 452 MiB (1%)
    Language                    : Spanish
    Service kind                : Complete Main
    Default                     : Yes
    Forced                      : No
    Original source medium      : Blu-ray

    Text
    ID                          : 5
    ID in the original source m : 4771 (0x12A3)
    Format                      : PGS
    Muxing mode                 : zlib
    Codec ID                    : S_HDMV/PGS
    Codec ID/Info               : Picture based subtitle format used on BDs/HD-DVDs
    Duration                    : 2 h 19 min
    Bit rate                    : 31.6 kb/s
    Count of elements           : 3352
    Stream size                 : 31.6 MiB (0%)
    Language                    : Spanish
    Default                     : No
    Forced                      : No
    Original source medium      : Blu-ray

    Menu
    00:00:00.000                : Chapter 01
    00:04:51.958                : Chapter 02
    00:09:39.453                : Chapter 03
    00:13:36.607                : Chapter 04
    00:18:54.299                : Chapter 05
    00:24:57.287                : Chapter 06
    00:28:43.346                : Chapter 07
    00:32:52.303                : Chapter 08
    00:39:18.731                : Chapter 09
    00:43:21.849                : Chapter 10
    00:48:26.570                : Chapter 11
    00:53:54.105                : Chapter 12
    00:58:31.257                : Chapter 13
    01:05:04.901                : Chapter 14
    01:09:52.521                : Chapter 15
    01:13:34.743                : Chapter 16
    01:19:41.860                : Chapter 17
    01:23:45.103                : Chapter 18
    01:28:55.288                : Chapter 19
    01:33:25.224                : Chapter 20
    01:40:14.758                : Chapter 21
    01:45:03.255                : Chapter 22
    01:49:38.488                : Chapter 23
    01:55:15.992                : Chapter 24
    02:01:40.835                : Chapter 25
    02:05:44.036                : Chapter 26
    02:12:36.406                : Chapter 27
    02:15:15.273                : Chapter 28

  • Peso: 42.0 GiB

Sinopsis

Cuando se produce un ataque contra el cuartel general de Kingsman y un nuevo villano se levanta, Eggsy y Merlin se ven obligados a trabajar junto con la agencia americana conocida como el Statesman para salvar al mundo.

 

Latino: AC3 5.1  – Ingles: TrueHD 7.1 + AC3 5.1

Ficha técnica

Video trailer de la película

Enlaces de descarga

Rip de Bluray

Descargar Kingsman The Golden Circle (2017) REMUX 4K HDR Latino – CMHDD


Aportes de DPeliculasHDmega la pass es:dpeliculashdmega.org Aportes de CinemaniaHD la pass es:cinemaniahdd.com
Guardado en : Acción , Aventura , Comedia , Crimen , Suspenso

Películas relacionadas

Kingsman The Golden Circle (2017) REMUX 4K HDR Latino – CMHDD pelicula full hd, Kingsman The Golden Circle (2017) REMUX 4K HDR Latino – CMHDD mega latino, Kingsman The Golden Circle (2017) REMUX 4K HDR Latino – CMHDD 4k latino, Kingsman The Golden Circle (2017) REMUX 4K HDR Latino – CMHDD pelicula completa, Kingsman The Golden Circle (2017) REMUX 4K HDR Latino – CMHDD descargar gratis, descargar Kingsman The Golden Circle (2017) REMUX 4K HDR Latino – CMHDD pelicula latino, Kingsman The Golden Circle (2017) REMUX 4K HDR Latino – CMHDD 1 link mega, Kingsman The Golden Circle (2017) REMUX 4K HDR Latino – CMHDD 1 link google drive, Kingsman The Golden Circle (2017) REMUX 4K HDR Latino – CMHDD hd 1080p latino.