×

¿Problemas para descargar con Mozilla, EDGE? Deshabilita la opción "Abrir vinculos en una pestaña nueva" tal como lo muestra ésta imagen.

Kingsman: El circulo de oro (2017) WEBDL 1080p Latino

3.400 vistas

Información de Kingsman: El circulo de oro (2017) WEBDL 1080p Latino

kingsman el circulo de oro 37922 poster

Datos de la película

  • Calidad: WEBDL
  • Audio: Español Latino AC3 2.0 iTunes - Ingles AC3 5.1 iTunes
  • Subtitulos: Español Latino SRT
  • Resolución: 1920X802
  • Formato: MKV
  • Codec: H.264
  • Encoder: Dpelis
  • Mediainfo: Clic para Mostrar Datos Ver
  • Format                                   : Matroska
    Format version                           : Version 4 / Version 2
    File size                                : 5.11 GiB
    Duration                                 : 2 h 21 min
    Overall bit rate                         : 5 182 kb/s
    Movie name                               : dpeliculashdmega.org
    Encoded date                             : UTC 2017-11-28 06:31:28
    Writing application                      : mkvmerge v15.0.0 ('Duel with the Devil') 64-bit
    Writing library                          : libebml v1.3.5 + libmatroska v1.4.5

    Video
    ID                                       : 1
    Format                                   : AVC
    Format/Info                              : Advanced Video Codec
    Format profile                           : High@L4
    Format settings                          : CABAC / 5 Ref Frames
    Format settings, CABAC                   : Yes
    Format settings, RefFrames               : 5 frames
    Codec ID                                 : V_MPEG4/ISO/AVC
    Duration                                 : 2 h 21 min
    Bit rate                                 : 4 541 kb/s
    Width                                    : 1 920 pixels
    Height                                   : 802 pixels
    Display aspect ratio                     : 2.40:1
    Frame rate mode                          : Constant
    Frame rate                               : 23.976 (23976/1000) FPS
    Color space                              : YUV
    Chroma subsampling                       : 4:2:0
    Bit depth                                : 8 bits
    Scan type                                : Progressive
    Bits/(Pixel*Frame)                       : 0.123
    Stream size                              : 4.48 GiB (88%)
    Title                                    : Kingsman: El circulo de oro (2017) WEBDL 1080p Latino
    Language                                 : English
    Default                                  : Yes
    Forced                                   : No
    Color range                              : Limited
    Color primaries                          : BT.709
    Transfer characteristics                 : BT.709
    Matrix coefficients                      : BT.709

    Audio #1
    ID                                       : 2
    Format                                   : AC-3
    Format/Info                              : Audio Coding 3
    Format settings, Endianness              : Big
    Codec ID                                 : A_AC3
    Duration                                 : 2 h 21 min
    Bit rate mode                            : Constant
    Bit rate                                 : 256 kb/s
    Channel(s)                               : 2 channels
    Channel positions                        : Front: L R
    Sampling rate                            : 48.0 kHz
    Frame rate                               : 31.250 FPS (1536 SPF)
    Bit depth                                : 16 bits
    Compression mode                         : Lossy
    Delay relative to video                  : -43 ms
    Stream size                              : 258 MiB (5%)
    Language                                 : Spanish
    Service kind                             : Complete Main
    Default                                  : Yes
    Forced                                   : No

    Audio #2
    ID                                       : 3
    Format                                   : AC-3
    Format/Info                              : Audio Coding 3
    Format settings, Endianness              : Big
    Codec ID                                 : A_AC3
    Duration                                 : 2 h 21 min
    Bit rate mode                            : Constant
    Bit rate                                 : 384 kb/s
    Channel(s)                               : 6 channels
    Channel positions                        : Front: L C R, Side: L R, LFE
    Sampling rate                            : 48.0 kHz
    Frame rate                               : 31.250 FPS (1536 SPF)
    Bit depth                                : 16 bits
    Compression mode                         : Lossy
    Delay relative to video                  : -43 ms
    Stream size                              : 387 MiB (7%)
    Language                                 : English
    Service kind                             : Complete Main
    Default                                  : No
    Forced                                   : No

    Text #1
    ID                                       : 4
    Format                                   : UTF-8
    Codec ID                                 : S_TEXT/UTF8
    Codec ID/Info                            : UTF-8 Plain Text
    Duration                                 : 2 h 9 min
    Bit rate                                 : 0 b/s
    Count of elements                        : 14
    Stream size                              : 459 Bytes (0%)
    Title                                    : Forzados
    Language                                 : Spanish
    Default                                  : No
    Forced                                   : No

    Text #2
    ID                                       : 5
    Format                                   : UTF-8
    Codec ID                                 : S_TEXT/UTF8
    Codec ID/Info                            : UTF-8 Plain Text
    Duration                                 : 2 h 19 min
    Bit rate                                 : 51 b/s
    Count of elements                        : 1676
    Stream size                              : 53.0 KiB (0%)
    Title                                    : Completos
    Language                                 : Spanish
    Default                                  : Yes
    Forced                                   : No

    Menu
    00:00:00.000                             : en:Chapter 1
    00:04:50.957                             : en:Chapter 2
    00:09:38.452                             : en:Chapter 3
    00:13:35.605                             : en:Chapter 4
    00:18:53.297                             : en:Chapter 5
    00:24:56.284                             : en:Chapter 6
    00:28:42.343                             : en:Chapter 7
    00:32:51.300                             : en:Chapter 8
    00:39:17.728                             : en:Chapter 9
    00:43:20.846                             : en:Chapter 10
    00:48:25.567                             : en:Chapter 11
    00:53:53.102                             : en:Chapter 12
    00:58:30.254                             : en:Chapter 13
    01:05:03.897                             : en:Chapter 14
    01:09:51.434                             : en:Chapter 15
    01:13:33.739                             : en:Chapter 16
    01:19:40.856                             : en:Chapter 17
    01:23:44.099                             : en:Chapter 18
    01:28:54.284                             : en:Chapter 19
    01:33:24.220                             : en:Chapter 20
    01:40:13.754                             : en:Chapter 21
    01:45:02.250                             : en:Chapter 22
    01:49:37.483                             : en:Chapter 23
    01:55:14.987                             : en:Chapter 24
    02:01:39.830                             : en:Chapter 25
    02:05:43.031                             : en:Chapter 26
    02:12:35.401                             : en:Chapter 27
    02:15:14.268                             : en:Chapter 28

  • Peso: 5.11 GiB

Sinopsis

Cuando se produce un ataque contra el cuartel general de Kingsman y un nuevo villano se levanta, Eggsy y Merlin se ven obligados a trabajar junto con la agencia americana conocida como el Statesman para salvar al mundo.

 

 

 

Nota: Audio Extraño del inicio reparado

Ficha técnica

Video trailer de la película

Enlaces de descarga

Rip de Bluray

Descargar Kingsman: El circulo de oro (2017) WEBDL 1080p Latino




Aportes de DPeliculasHDmega la pass es:dpeliculashdmega.org Aportes de CinemaniaHD la pass es:cinemaniahdd.com Aportes recientes:cinemaniahdd.net
Guardado en : Acción , Aventura , Comedia

Películas relacionadas

  • Cómo robar un millón (1966) REMUX 1080p Latino-CMHDD

    Cómo robar un millón (1966) REMUX 1080p Latino-CMHDD

    1966
    Cómo robar un millón (1966) REMUX 1080p Latino-CMHDD

    2h 3m 1966

    Descargar Cómo robar un millón (1966) REMUX 1080p Latino-CMHDD. El padre de Nicole, un legendario coleccionista...

    Director: William Wyler

    Género: Comedia

    Actores: Roger Tréville

  • Wanted Man (2024) HD 1080p Latino

    Wanted Man (2024) HD 1080p Latino

    2024
    Wanted Man (2024) HD 1080p Latino

    1h 25m 2024

    Descargar Wanted Man (2024) HD 1080p Latino. Sigue a un oficial de policía que debe recuperar a un testigo...

    Director: Kevin Leslie

    Género: Acción

    Actores: Xzavier Estrada

  • Wanted Man (2024) PLACEBO Full HD 1080p Latino

    Wanted Man (2024) PLACEBO Full HD 1080p Latino

    2024
    Wanted Man (2024) PLACEBO Full HD 1080p Latino

    1h 25m 2024

    Descargar Wanted Man (2024) PLACEBO Full HD 1080p Latino. Sigue a un oficial de policía que debe recuperar...

    Director: Kevin Leslie

    Género: Acción

    Actores: Xzavier Estrada

descargar Kingsman: El circulo de oro (2017) WEBDL 1080p Latino WEBDL 1080p gratis, Kingsman: El circulo de oro (2017) WEBDL 1080p Latino WEBDL mega 1 link, Kingsman: El circulo de oro (2017) WEBDL 1080p Latino WEBDL pelicula completa, descargar Kingsman: El circulo de oro (2017) WEBDL 1080p Latino WEBDL gratis en mega.

Kingsman: El circulo de oro (2017) WEBDL 1080p Latino pelicula full hd, Kingsman: El circulo de oro (2017) WEBDL 1080p Latino mega latino, Kingsman: El circulo de oro (2017) WEBDL 1080p Latino 4k latino, Kingsman: El circulo de oro (2017) WEBDL 1080p Latino pelicula completa, Kingsman: El circulo de oro (2017) WEBDL 1080p Latino descargar gratis, descargar Kingsman: El circulo de oro (2017) WEBDL 1080p Latino pelicula latino, Kingsman: El circulo de oro (2017) WEBDL 1080p Latino 1 link mega, Kingsman: El circulo de oro (2017) WEBDL 1080p Latino 1 link google drive, Kingsman: El circulo de oro (2017) WEBDL 1080p Latino hd 1080p latino.
Comentarios 16