×

¿Problemas para descargar con Mozilla, EDGE? Deshabilita la opción "Abrir vinculos en una pestaña nueva" tal como lo muestra ésta imagen.

Kingsman: El círculo de oro (2017) 1080p Latino

3.521 vistas

Información de Kingsman: El círculo de oro (2017) 1080p Latino

51XRScF8mRUPFRZs4NIrm32iles

Datos de la película

  • Calidad: 1080p
  • Audio: Español Latino AC3 5.1 BLURAY - Ingles AC3 5.1 BLURAY
  • Subtitulos: Español Latino SRT
  • Resolución: 1920X804
  • Formato: MKV
  • Codec: H.264
  • Encoder: Dpelis
  • Mediainfo: Clic para Mostrar Datos Ver
  • Format                                   : Matroska
    Format version                           : Version 4 / Version 2
    File size                                : 4.19 GiB
    Duration                                 : 2 h 21 min
    Overall bit rate                         : 4 251 kb/s
    Movie name                               : dpeliculashdmega.org
    Encoded date                             : UTC 2017-11-30 23:09:47 / UTC 2017-11-30T04:37:55Z
    Writing application                      : mkvmerge v15.0.0 ('Duel with the Devil') 64-bit
    Writing library                          : libebml v1.3.5 + libmatroska v1.4.5 / Lavf57.7.2

    Video
    ID                                       : 1
    Format                                   : AVC
    Format/Info                              : Advanced Video Codec
    Format profile                           : High@L4.1
    Format settings                          : CABAC / 5 Ref Frames
    Format settings, CABAC                   : Yes
    Format settings, RefFrames               : 5 frames
    Codec ID                                 : V_MPEG4/ISO/AVC
    Duration                                 : 2 h 21 min
    Bit rate                                 : 3 500 kb/s
    Width                                    : 1 920 pixels
    Height                                   : 804 pixels
    Display aspect ratio                     : 2.40:1
    Frame rate mode                          : Constant
    Frame rate                               : 23.976 (24000/1001) FPS
    Color space                              : YUV
    Chroma subsampling                       : 4:2:0
    Bit depth                                : 8 bits
    Scan type                                : Progressive
    Bits/(Pixel*Frame)                       : 0.095
    Stream size                              : 3.35 GiB (80%)
    Title                                    : Kingsman: El círculo de oro (2017) 1080p Latino
    Writing library                          : x264 core 148 r2708 86b7198
    Encoding settings                        : cabac=1 / ref=5 / deblock=1:0:0 / analyse=0x3:0x113 / me=umh / subme=8 / psy=1 / psy_rd=1.00:0.00 / mixed_ref=1 / me_range=16 / chroma_me=1 / trellis=1 / 8x8dct=1 / cqm=0 / deadzone=21,11 / fast_pskip=1 / chroma_qp_offset=-2 / threads=25 / lookahead_threads=4 / sliced_threads=0 / nr=0 / decimate=1 / interlaced=0 / bluray_compat=0 / constrained_intra=0 / bframes=3 / b_pyramid=2 / b_adapt=2 / b_bias=0 / direct=3 / weightb=1 / open_gop=0 / weightp=2 / keyint=240 / keyint_min=24 / scenecut=40 / intra_refresh=0 / rc_lookahead=50 / rc=abr / mbtree=1 / bitrate=3500 / ratetol=1.0 / qcomp=0.60 / qpmin=0 / qpmax=69 / qpstep=4 / vbv_maxrate=62500 / vbv_bufsize=78125 / nal_hrd=none / filler=0 / ip_ratio=1.40 / aq=1:1.00
    Language                                 : English
    Default                                  : Yes
    Forced                                   : No
    Color range                              : Limited
    Color primaries                          : BT.709
    Transfer characteristics                 : BT.709
    Matrix coefficients                      : BT.709
    Statistics Tags Issue                    : mkvmerge v15.0.0 ('Duel with the Devil') 64-bit 2017-11-30 23:09:47 / mkvmerge v15.0.0 ('Duel with the Devil') 64-bit 2017-11-30 23:09:47 / UTC 2017-11-30T04:37:55Z
    FromStats_BitRate                        : 3481358
    FromStats_Duration                       : 02:21:02.246000000
    FromStats_FrameCount                     : 202891
    FromStats_StreamSize                     : 3682513728

    Audio #1
    ID                                       : 2
    Format                                   : AC-3
    Format/Info                              : Audio Coding 3
    Format settings, Endianness              : Big
    Codec ID                                 : A_AC3
    Duration                                 : 2 h 21 min
    Bit rate mode                            : Constant
    Bit rate                                 : 384 kb/s
    Channel(s)                               : 6 channels
    Channel positions                        : Front: L C R, Side: L R, LFE
    Sampling rate                            : 48.0 kHz
    Frame rate                               : 31.250 FPS (1536 SPF)
    Bit depth                                : 16 bits
    Compression mode                         : Lossy
    Delay relative to video                  : -5 ms
    Stream size                              : 387 MiB (9%)
    Title                                    : Latino-AC3
    Language                                 : Spanish
    Service kind                             : Complete Main
    Default                                  : Yes
    Forced                                   : Yes
    Statistics Tags Issue                    : mkvmerge v15.0.0 ('Duel with the Devil') 64-bit 2017-11-30 23:09:47 / mkvmerge v15.0.0 ('Duel with the Devil') 64-bit 2017-11-30 23:09:47 / UTC 2017-11-30T04:37:55Z
    FromStats_BitRate                        : 384000
    FromStats_Duration                       : 02:21:02.304000000
    FromStats_FrameCount                     : 264447
    FromStats_StreamSize                     : 406190592

    Audio #2
    ID                                       : 3
    Format                                   : AC-3
    Format/Info                              : Audio Coding 3
    Format settings, Endianness              : Big
    Codec ID                                 : A_AC3
    Duration                                 : 2 h 21 min
    Bit rate mode                            : Constant
    Bit rate                                 : 384 kb/s
    Channel(s)                               : 6 channels
    Channel positions                        : Front: L C R, Side: L R, LFE
    Sampling rate                            : 48.0 kHz
    Frame rate                               : 31.250 FPS (1536 SPF)
    Bit depth                                : 16 bits
    Compression mode                         : Lossy
    Delay relative to video                  : -5 ms
    Stream size                              : 387 MiB (9%)
    Title                                    : Ingles-AC3
    Language                                 : English
    Service kind                             : Complete Main
    Default                                  : No
    Forced                                   : No
    Statistics Tags Issue                    : mkvmerge v15.0.0 ('Duel with the Devil') 64-bit 2017-11-30 23:09:47 / mkvmerge v15.0.0 ('Duel with the Devil') 64-bit 2017-11-30 23:09:47 / UTC 2017-11-30T04:37:55Z
    FromStats_BitRate                        : 384000
    FromStats_Duration                       : 02:21:02.240000000
    FromStats_FrameCount                     : 264445
    FromStats_StreamSize                     : 406187520

    Text #1
    ID                                       : 4
    Format                                   : UTF-8
    Codec ID                                 : S_TEXT/UTF8
    Codec ID/Info                            : UTF-8 Plain Text
    Title                                    : Forzados
    Language                                 : Spanish
    Default                                  : Yes
    Forced                                   : Yes
    Statistics Tags Issue                    : mkvmerge v15.0.0 ('Duel with the Devil') 64-bit 2017-11-30 23:09:47 / mkvmerge v15.0.0 ('Duel with the Devil') 64-bit 2017-11-30 23:09:47 / UTC 2017-11-30T04:37:55Z
    FromStats_BitRate                        : 0
    FromStats_Duration                       : 01:41:03.713000000
    FromStats_FrameCount                     : 11
    FromStats_StreamSize                     : 328

    Text #2
    ID                                       : 5
    Format                                   : UTF-8
    Codec ID                                 : S_TEXT/UTF8
    Codec ID/Info                            : UTF-8 Plain Text
    Title                                    : Completos
    Language                                 : Spanish
    Default                                  : No
    Forced                                   : No
    Statistics Tags Issue                    : mkvmerge v15.0.0 ('Duel with the Devil') 64-bit 2017-11-30 23:09:47 / mkvmerge v15.0.0 ('Duel with the Devil') 64-bit 2017-11-30 23:09:47 / UTC 2017-11-30T04:37:55Z
    FromStats_BitRate                        : 54
    FromStats_Duration                       : 02:13:19.992000000
    FromStats_FrameCount                     : 1672
    FromStats_StreamSize                     : 54209

    Menu
    00:00:00.000                             : :00:00:00.000
    00:04:51.958                             : :00:04:51.958
    00:09:39.454                             : :00:09:39.454
    00:13:36.607                             : :00:13:36.607
    00:18:54.300                             : :00:18:54.300
    00:24:57.287                             : :00:24:57.287
    00:28:43.347                             : :00:28:43.347
    00:32:52.304                             : :00:32:52.304
    00:39:18.731                             : :00:39:18.731
    00:43:21.849                             : :00:43:21.849
    00:48:26.570                             : :00:48:26.570
    00:53:54.106                             : :00:53:54.106
    00:58:31.258                             : :00:58:31.258
    01:05:04.901                             : :01:05:04.901
    01:09:52.605                             : :01:09:52.522
    01:13:34.744                             : :01:13:34.744
    01:19:41.860                             : :01:19:41.860
    01:23:45.103                             : :01:23:45.103
    01:28:55.288                             : :01:28:55.288
    01:33:25.225                             : :01:33:25.225
    01:40:14.759                             : :01:40:14.759
    01:45:03.255                             : :01:45:03.255
    01:49:38.489                             : :01:49:38.489
    01:55:15.992                             : :01:55:15.992
    02:01:40.835                             : :02:01:40.835
    02:05:44.037                             : :02:05:44.036
    02:12:36.407                             : :02:12:36.407
    02:15:15.274                             : :02:15:15.274

  • Peso: 4.19 GiB

Sinopsis

Kingsman es una agencia de inteligencia internacional independiente que opera con la máxima discreción con el objetivo final de mantener el mundo seguro. En ‘Kingsman: El círculo de oro’, nuestros héroes se enfrentan a un nuevo desafío. Cuando su cuartel general es destruido y el mundo es mantenido como rehén, su viaje les lleva al descubrimiento de una organización de espionaje aliada en los Estados Unidos llamada Statesman. En una nueva aventura que prueba la fuerza y ​​el ingenio de sus agentes hasta el límite, estas dos organizaciones secretas de élite se unen para derrotar a un enemigo común despiadado, con el fin de salvar al mundo, algo que se está convirtiendo en un hábito para Eggsy (Egerton).

Ficha técnica

  • Titulo original: Kingsman: The Golden Circle
  • Fecha de lanzamiento: 20-09-2017 (United Kingdom, United States of America)
  • Director: Matthew Vaughn
  • Género: Acción, Aventura, Comedia

Video trailer de la película

Enlaces de descarga

Rip de Bluray

Descargar Kingsman: El círculo de oro (2017) 1080p Latino




Aportes de DPeliculasHDmega la pass es:dpeliculashdmega.org Aportes de CinemaniaHD la pass es:cinemaniahdd.com Aportes recientes:cinemaniahdd.net
Guardado en : Acción , Aventura , Comedia

Películas relacionadas

  • Players (2024) NF WEB-DL 1080p Latino

    Players (2024) NF WEB-DL 1080p Latino

    2024
    Players (2024) NF WEB-DL 1080p Latino

    1h 45m 2024

    Descargar Players (2024) NF WEB-DL 1080p Latino. Una periodista deportiva neoyorquina con un ingenioso...

    Director: Trish Sie

    Género: Comedia

    Actores: Veraalba Santa

  • Combate clandestino (2024) AMZN WEB-DL 1080p Latino

    Combate clandestino (2024) AMZN WEB-DL 1080p Latino

    2024
    Combate clandestino (2024) AMZN WEB-DL 1080p Latino

    1h 30m 2024

    Descargar Combate clandestino (2024) AMZN WEB-DL 1080p Latino. Un ex soldado a la deriva se convierte...

    Director: Christian Sesma

    Género: Acción

    Actores: Tyler Wombles

  • ¡Patos! (2023) HD 1080p Latino

    ¡Patos! (2023) HD 1080p Latino

    2023
    ¡Patos! (2023) HD 1080p Latino

    1h 23m 2023

    Descargar ¡Patos! (2023) HD 1080p Latino. Después de que una familia de patos migratorios aterriza...

    Director: Guy-Laurent Homsy

    Género: Acción

    Actores: Zeno Robinson

descargar Kingsman: El círculo de oro (2017) 1080p Latino 1080p 1080p gratis, Kingsman: El círculo de oro (2017) 1080p Latino 1080p mega 1 link, Kingsman: El círculo de oro (2017) 1080p Latino 1080p pelicula completa, descargar Kingsman: El círculo de oro (2017) 1080p Latino 1080p gratis en mega.

Kingsman: El círculo de oro (2017) 1080p Latino pelicula full hd, Kingsman: El círculo de oro (2017) 1080p Latino mega latino, Kingsman: El círculo de oro (2017) 1080p Latino 4k latino, Kingsman: El círculo de oro (2017) 1080p Latino pelicula completa, Kingsman: El círculo de oro (2017) 1080p Latino descargar gratis, descargar Kingsman: El círculo de oro (2017) 1080p Latino pelicula latino, Kingsman: El círculo de oro (2017) 1080p Latino 1 link mega, Kingsman: El círculo de oro (2017) 1080p Latino 1 link google drive, Kingsman: El círculo de oro (2017) 1080p Latino hd 1080p latino.
Comentarios 3