×

¿Problemas para descargar con Mozilla, EDGE? Deshabilita la opción "Abrir vinculos en una pestaña nueva" tal como lo muestra ésta imagen.

King’s Man: El origen (2021) PLACEBO Full HD 1080p Latino

3.576 vistas

Información de King’s Man: El origen (2021) PLACEBO Full HD 1080p Latino

Datos de la película

  • Calidad: Full 1080p
  • Audio: Español Latino AC3 5.1 BLURAY - Ingles DTS 5.1 BLURAY
  • Subtitulos: Español Latino PGS - Ingles PGS
  • Resolución: 1920x1080p
  • Formato: MKV
  • Codec: H.264
  • Encoder: Melkor
  • Mediainfo: Clic para Mostrar Datos Ver
  • King's Man el origen (2021) PLACEBO 1080p Latino.mkv
    Format                      : Matroska
    Format version              : Version 4
    File size                   : 5.55 GiB
    Duration                    : 2 h 10 min
    Overall bit rate            : 6 081 kb/s
    Movie name                  : The Kings Man (2021) CinemaniaHDD.Net
    Encoded date                : UTC 2022-02-18 07:36:04
    Writing application         : mkvmerge v56.1.0 ('My Friend') 64-bit
    Writing library             : libebml v1.4.2 + libmatroska v1.6.4
    Attachments                 : CINEMANIAHD.png

    Video
    ID                          : 1
    Format                      : AVC
    Format/Info                 : Advanced Video Codec
    Format profile              : High@L4.1
    Format settings             : CABAC / 4 Ref Frames
    Format settings, CABAC      : Yes
    Format settings, Reference  : 4 frames
    Codec ID                    : V_MPEG4/ISO/AVC
    Duration                    : 2 h 10 min
    Bit rate                    : 3 903 kb/s
    Width                       : 1 920 pixels
    Height                      : 1 080 pixels
    Display aspect ratio        : 16:9
    Frame rate mode             : Constant
    Frame rate                  : 23.976 (24000/1001) FPS
    Color space                 : YUV
    Chroma subsampling          : 4:2:0
    Bit depth                   : 8 bits
    Scan type                   : Progressive
    Bits/(Pixel*Frame)          : 0.078
    Stream size                 : 3.56 GiB (64%)
    Title                       : Full HD1080p [CinemaniaHDD]
    Writing library             : x264 core 163 r3059 b684ebe0
    Encoding settings           : cabac=1 / ref=4 / deblock=1:0:0 / analyse=0x3:0x133 / me=tesa / subme=11 / psy=1 / psy_rd=1.00:0.00 / mixed_ref=1 / me_range=24 / chroma_me=1 / trellis=2 / 8x8dct=1 / cqm=0 / deadzone=21,11 / fast_pskip=0 / chroma_qp_offset=-2 / threads=24 / lookahead_threads=6 / sliced_threads=0 / nr=0 / decimate=1 / interlaced=0 / bluray_compat=0 / constrained_intra=0 / bframes=16 / b_pyramid=2 / b_adapt=2 / b_bias=0 / direct=3 / weightb=1 / open_gop=0 / weightp=2 / keyint=240 / keyint_min=24 / scenecut=40 / intra_refresh=0 / rc_lookahead=60 / rc=crf / mbtree=1 / crf=19.0 / qcomp=0.60 / qpmin=0 / qpmax=69 / qpstep=4 / vbv_maxrate=62500 / vbv_bufsize=78125 / crf_max=0.0 / nal_hrd=none / filler=0 / ip_ratio=1.40 / aq=1:1.00
    Default                     : Yes
    Forced                      : Yes
    Color range                 : Limited
    Color primaries             : BT.709
    Transfer characteristics    : BT.709
    Matrix coefficients         : BT.709

    Audio #1
    ID                          : 2
    Format                      : AC-3
    Format/Info                 : Audio Coding 3
    Commercial name             : Dolby Digital
    Codec ID                    : A_AC3
    Duration                    : 2 h 10 min
    Bit rate mode               : Constant
    Bit rate                    : 640 kb/s
    Channel(s)                  : 6 channels
    Channel layout              : L R C LFE Ls Rs
    Sampling rate               : 48.0 kHz
    Frame rate                  : 31.250 FPS (1536 SPF)
    Compression mode            : Lossy
    Stream size                 : 598 MiB (11%)
    Title                       : Español Latino [CinemaniaHDD]
    Language                    : Spanish
    Service kind                : Complete Main
    Default                     : Yes
    Forced                      : Yes

    Audio #2
    ID                          : 3
    Format                      : DTS
    Format/Info                 : Digital Theater Systems
    Codec ID                    : A_DTS
    Duration                    : 2 h 10 min
    Bit rate mode               : Constant
    Bit rate                    : 1 509 kb/s
    Channel(s)                  : 6 channels
    Channel layout              : C L R Ls Rs LFE
    Sampling rate               : 48.0 kHz
    Frame rate                  : 93.750 FPS (512 SPF)
    Bit depth                   : 24 bits
    Compression mode            : Lossy
    Stream size                 : 1.38 GiB (25%)
    Title                       : Ingles [CinemaniaHDD]
    Language                    : English
    Default                     : No
    Forced                      : No

    Text #1
    ID                          : 4
    Format                      : PGS
    Muxing mode                 : zlib
    Codec ID                    : S_HDMV/PGS
    Codec ID/Info               : Picture based subtitle format used on BDs/HD-DVDs
    Duration                    : 1 h 6 min
    Bit rate                    : 429 b/s
    Count of elements           : 18
    Stream size                 : 209 KiB (0%)
    Title                       : Forzados-PGS [CinemaniaHDD]
    Language                    : Spanish
    Default                     : No
    Forced                      : No

    Text #2
    ID                          : 5
    Format                      : PGS
    Muxing mode                 : zlib
    Codec ID                    : S_HDMV/PGS
    Codec ID/Info               : Picture based subtitle format used on BDs/HD-DVDs
    Duration                    : 2 h 3 min
    Bit rate                    : 34.3 kb/s
    Count of elements           : 2652
    Stream size                 : 30.3 MiB (1%)
    Title                       : Español-PGS [CinemaniaHDD]
    Language                    : Spanish
    Default                     : No
    Forced                      : No

    Text #3
    ID                          : 6
    Format                      : PGS
    Muxing mode                 : zlib
    Codec ID                    : S_HDMV/PGS
    Codec ID/Info               : Picture based subtitle format used on BDs/HD-DVDs
    Duration                    : 2 h 3 min
    Bit rate                    : 38.7 kb/s
    Count of elements           : 3424
    Stream size                 : 34.0 MiB (1%)
    Title                       : Ingles-PGS [CinemaniaHDD]
    Language                    : English
    Default                     : No
    Forced                      : No

    Text #4
    ID                          : 7
    Format                      : UTF-8
    Codec ID                    : S_TEXT/UTF8
    Codec ID/Info               : UTF-8 Plain Text
    Duration                    : 1 h 6 min
    Bit rate                    : 0 b/s
    Count of elements           : 8
    Stream size                 : 255 Bytes (0%)
    Title                       : Forzados-SRT [CinemaniaHDD]
    Language                    : Spanish
    Default                     : Yes
    Forced                      : Yes

    Text #5
    ID                          : 8
    Format                      : UTF-8
    Codec ID                    : S_TEXT/UTF8
    Codec ID/Info               : UTF-8 Plain Text
    Duration                    : 2 h 3 min
    Bit rate                    : 49 b/s
    Count of elements           : 1325
    Stream size                 : 45.2 KiB (0%)
    Title                       : Español-SRT [CinemaniaHDD]
    Language                    : Spanish
    Default                     : No
    Forced                      : No

    Menu
    00:00:00.000                : :Chapter 01
    00:07:23.985                : :Chapter 02
    00:11:07.375                : :Chapter 03
    00:14:37.794                : :Chapter 04
    00:19:03.184                : :Chapter 05
    00:20:50.291                : :Chapter 06
    00:28:24.286                : :Chapter 07
    00:31:09.284                : :Chapter 08
    00:34:30.860                : :Chapter 09
    00:38:11.289                : :Chapter 10
    00:42:02.854                : :Chapter 11
    00:47:19.378                : :Chapter 12
    00:58:30.924                : :Chapter 13
    00:59:12.799                : :Chapter 14
    01:02:24.908                : :Chapter 15
    01:05:22.585                : :Chapter 16
    01:07:16.449                : :Chapter 17
    01:09:08.853                : :Chapter 18
    01:13:53.387                : :Chapter 19
    01:26:49.996                : :Chapter 20
    01:33:11.336                : :Chapter 21
    01:36:39.002                : :Chapter 22
    01:39:39.015                : :Chapter 23
    01:44:25.676                : :Chapter 24
    01:48:28.961                : :Chapter 25
    01:58:04.536                : :Chapter 26
    02:01:58.853                : :Chapter 27

  • Peso: 5.55 GiB

Sinopsis

Descargar King’s Man: El origen (2021) PLACEBO Full HD 1080p Latino. Cuando un grupo formado por los tiranos y las mentes criminales más malvadas de la historia se une para desencadenar una guerra que matará a millones de personas, un hombre tendrá que luchar a contrarreloj para detenerlos. Tercera entrega de la saga ‘Kingsman’, ambientada muchos años antes de las anteriores y explicando el origen de la agencia.

 

Ficha técnica

Video trailer de la película

Enlaces de descarga

Rip de Bluray

Descargar King’s Man: El origen (2021) PLACEBO Full HD 1080p Latino




Aportes de DPeliculasHDmega la pass es:dpeliculashdmega.org Aportes de CinemaniaHD la pass es:cinemaniahdd.com

Películas relacionadas

descargar King’s Man: El origen (2021) PLACEBO Full HD 1080p Latino Full 1080p 1080p gratis, King’s Man: El origen (2021) PLACEBO Full HD 1080p Latino Full 1080p mega 1 link, King’s Man: El origen (2021) PLACEBO Full HD 1080p Latino Full 1080p pelicula completa, descargar King’s Man: El origen (2021) PLACEBO Full HD 1080p Latino Full 1080p gratis en mega.

King’s Man: El origen (2021) PLACEBO Full HD 1080p Latino pelicula full hd, King’s Man: El origen (2021) PLACEBO Full HD 1080p Latino mega latino, King’s Man: El origen (2021) PLACEBO Full HD 1080p Latino 4k latino, King’s Man: El origen (2021) PLACEBO Full HD 1080p Latino pelicula completa, King’s Man: El origen (2021) PLACEBO Full HD 1080p Latino descargar gratis, descargar King’s Man: El origen (2021) PLACEBO Full HD 1080p Latino pelicula latino, King’s Man: El origen (2021) PLACEBO Full HD 1080p Latino 1 link mega, King’s Man: El origen (2021) PLACEBO Full HD 1080p Latino 1 link google drive, King’s Man: El origen (2021) PLACEBO Full HD 1080p Latino hd 1080p latino.
Comentarios 0