×

¿Problemas para descargar con Mozilla, EDGE? Deshabilita la opción "Abrir vinculos en una pestaña nueva" tal como lo muestra ésta imagen.

Kingdom of the Planet of the Apes (2024) WEB-DL 1080p Latino – CMHDD

28 vistas

Información de Kingdom of the Planet of the Apes (2024) WEB-DL 1080p Latino – CMHDD

Datos de la película

  • Calidad: WEBDL
  • Audio: Se especifica abajo de la Sinopsis
  • Subtitulos: Español Latino SRT- FORZADOS SRT
  • Resolución: 1920x800p
  • Formato: MKV
  • Codec: H.264
  • Encoder: Dracarys
  • Mediainfo: Clic para Mostrar Datos Ver
  • Format                      : Matroska
    Format version              : Version 4
    File size                   : 8.65 GiB
    Duration                    : 2 h 24 min
    Overall bit rate            : 8 564 kb/s
    Movie name                  : Kingdom of the Planet of the Apes (2024) WEB-DL 1080p Latino - CMHDD
    Encoded date                : UTC 2024-07-08 23:11:02
    Writing application         : mkvmerge v47.0.0 ('Black Flag') 64-bit
    Writing library             : libebml v1.3.10 + libmatroska v1.5.2

    Video
    ID                          : 1
    Format                      : AVC
    Format/Info                 : Advanced Video Codec
    Format profile              : High@L4
    Format settings             : CABAC / 5 Ref Frames
    Format settings, CABAC      : Yes
    Format settings, Reference  : 5 frames
    Codec ID                    : V_MPEG4/ISO/AVC
    Duration                    : 2 h 24 min
    Bit rate                    : 6 513 kb/s
    Width                       : 1 918 pixels
    Height                      : 802 pixels
    Display aspect ratio        : 2.40:1
    Frame rate mode             : Constant
    Frame rate                  : 24.000 FPS
    Color space                 : YUV
    Chroma subsampling          : 4:2:0
    Bit depth                   : 8 bits
    Scan type                   : Progressive
    Bits/(Pixel*Frame)          : 0.176
    Stream size                 : 6.58 GiB (76%)
    Language                    : English
    Default                     : Yes
    Forced                      : No
    Color range                 : Limited
    Color primaries             : BT.709
    Transfer characteristics    : BT.709
    Matrix coefficients         : BT.709

    Audio #1
    ID                          : 2
    Format                      : AC-3
    Format/Info                 : Audio Coding 3
    Commercial name             : Dolby Digital
    Codec ID                    : A_AC3
    Duration                    : 2 h 24 min
    Bit rate mode               : Constant
    Bit rate                    : 640 kb/s
    Channel(s)                  : 6 channels
    Channel layout              : L R C LFE Ls Rs
    Sampling rate               : 48.0 kHz
    Frame rate                  : 31.250 FPS (1536 SPF)
    Compression mode            : Lossy
    Stream size                 : 662 MiB (7%)
    Language                    : Spanish
    Service kind                : Complete Main
    Default                     : Yes
    Forced                      : Yes

    Audio #2
    ID                          : 3
    Format                      : E-AC-3
    Format/Info                 : Enhanced AC-3
    Commercial name             : Dolby Digital Plus
    Format settings             : Dolby Surround EX
    Codec ID                    : A_EAC3
    Duration                    : 2 h 24 min
    Bit rate mode               : Constant
    Bit rate                    : 640 kb/s
    Channel(s)                  : 8 channels
    Channel layout              : L R C LFE Ls Rs Lb Rb
    Sampling rate               : 48.0 kHz
    Frame rate                  : 31.250 FPS (1536 SPF)
    Compression mode            : Lossy
    Stream size                 : 662 MiB (7%)
    Language                    : Spanish
    Service kind                : Complete Main
    Default                     : No
    Forced                      : No

    Audio #3
    ID                          : 4
    Format                      : E-AC-3 JOC
    Format/Info                 : Enhanced AC-3 with Joint Object Coding
    Commercial name             : Dolby Digital Plus with Dolby Atmos
    Codec ID                    : A_EAC3
    Duration                    : 2 h 24 min
    Bit rate mode               : Constant
    Bit rate                    : 768 kb/s
    Channel(s)                  : 6 channels
    Channel layout              : L R C LFE Ls Rs
    Sampling rate               : 48.0 kHz
    Frame rate                  : 31.250 FPS (1536 SPF)
    Compression mode            : Lossy
    Stream size                 : 795 MiB (9%)
    Language                    : English
    Service kind                : Complete Main
    Default                     : No
    Forced                      : No
    Complexity index            : 16
    Number of dynamic objects   : 15
    Bed channel count           : 1 channel
    Bed channel configuration   : LFE

    Text #1
    ID                          : 5
    Format                      : UTF-8
    Codec ID                    : S_TEXT/UTF8
    Codec ID/Info               : UTF-8 Plain Text
    Duration                    : 2 h 12 min
    Bit rate                    : 0 b/s
    Count of elements           : 24
    Stream size                 : 742 Bytes (0%)
    Title                       : Forzados
    Language                    : Spanish
    Default                     : Yes
    Forced                      : Yes

    Text #2
    ID                          : 6
    Format                      : UTF-8
    Codec ID                    : S_TEXT/UTF8
    Codec ID/Info               : UTF-8 Plain Text
    Duration                    : 2 h 15 min
    Bit rate                    : 19 b/s
    Count of elements           : 952
    Stream size                 : 19.3 KiB (0%)
    Title                       : Completos
    Language                    : Spanish
    Default                     : No
    Forced                      : No

     

  • Peso: 8.65 GiB

Sinopsis

Ambientada varias generaciones en el futuro tras el reinado de César, en la que los simios son la especie dominante que vive en armonía y los humanos se han visto reducidos a vivir en la sombra. Mientras un nuevo y tiránico líder simio construye su imperio, un joven simio emprende un angustioso viaje que le llevará a cuestionarse todo lo que sabe sobre el pasado y a tomar decisiones que definirán el futuro de simios y humanos por igual.

 

Latino: AC3 5.1 + E-AC3 7.1  –  Ingles: E-AC3 5.1

Ficha técnica

Video trailer de la película

Enlaces de descarga

Rip de Bluray

Descargar Kingdom of the Planet of the Apes (2024) WEB-DL 1080p Latino – CMHDD




Aportes de DPeliculasHDmega la pass es:dpeliculashdmega.org Aportes de CinemaniaHD la pass es:cinemaniahdd.com Aportes recientes:cinemaniahdd.net
Guardado en : Acción , Aventura , Ciencia ficción

Películas relacionadas

descargar Kingdom of the Planet of the Apes (2024) WEB-DL 1080p Latino – CMHDD WEBDL 1080p gratis, Kingdom of the Planet of the Apes (2024) WEB-DL 1080p Latino – CMHDD WEBDL mega 1 link, Kingdom of the Planet of the Apes (2024) WEB-DL 1080p Latino – CMHDD WEBDL pelicula completa, descargar Kingdom of the Planet of the Apes (2024) WEB-DL 1080p Latino – CMHDD WEBDL gratis en mega.

Kingdom of the Planet of the Apes (2024) WEB-DL 1080p Latino – CMHDD pelicula full hd, Kingdom of the Planet of the Apes (2024) WEB-DL 1080p Latino – CMHDD mega latino, Kingdom of the Planet of the Apes (2024) WEB-DL 1080p Latino – CMHDD 4k latino, Kingdom of the Planet of the Apes (2024) WEB-DL 1080p Latino – CMHDD pelicula completa, Kingdom of the Planet of the Apes (2024) WEB-DL 1080p Latino – CMHDD descargar gratis, descargar Kingdom of the Planet of the Apes (2024) WEB-DL 1080p Latino – CMHDD pelicula latino, Kingdom of the Planet of the Apes (2024) WEB-DL 1080p Latino – CMHDD 1 link mega, Kingdom of the Planet of the Apes (2024) WEB-DL 1080p Latino – CMHDD 1 link google drive, Kingdom of the Planet of the Apes (2024) WEB-DL 1080p Latino – CMHDD hd 1080p latino.
Comentarios 0