×

¿Problemas para descargar con Mozilla, EDGE? Deshabilita la opción "Abrir vinculos en una pestaña nueva" tal como lo muestra ésta imagen.

Cruzada (2005) Theatrical Cut REMUX 1080p Latino

484 vistas

Información de Cruzada (2005) Theatrical Cut REMUX 1080p Latino

Datos de la película

  • Calidad: Full 1080p
  • Audio: Español Latino AC3 5.1 DVD - Ingles DTS 5.1 BLURAY
  • Subtitulos: Español Latino PGS - Ingles PGS
  • Resolución: 1920x1080p
  • Formato: MKV
  • Codec: H.264
  • Encoder: CinefiloCool
  • Mediainfo: Clic para Mostrar Datos Ver
  • Cruzada (2005) Theatrical Cut REMUX 1080p Latino-CMHDD.mkv
    Format                      : Matroska
    Format version              : Version 4
    File size                   : 24.3 GiB
    Duration                    : 2 h 24 min
    Overall bit rate mode       : Variable
    Overall bit rate            : 24.0 Mb/s
    Movie name                  : Kingdom Of Heaven (2005) CinemaniaHDD.Net
    Encoded date                : UTC 2022-04-04 07:16:27
    Writing application         : mkvmerge v56.1.0 ('My Friend') 64-bit
    Writing library             : libebml v1.4.2 + libmatroska v1.6.4

    Video
    ID                          : 1
    Format                      : AVC
    Format/Info                 : Advanced Video Codec
    Format profile              : High@L4.1
    Format settings             : CABAC / 4 Ref Frames
    Format settings, CABAC      : Yes
    Format settings, Reference  : 4 frames
    Codec ID                    : V_MPEG4/ISO/AVC
    Duration                    : 2 h 24 min
    Bit rate mode               : Variable
    Bit rate                    : 19.8 Mb/s
    Maximum bit rate            : 37.5 Mb/s
    Width                       : 1 920 pixels
    Height                      : 1 080 pixels
    Display aspect ratio        : 16:9
    Frame rate mode             : Constant
    Frame rate                  : 23.976 (24000/1001) FPS
    Color space                 : YUV
    Chroma subsampling          : 4:2:0
    Bit depth                   : 8 bits
    Scan type                   : Progressive
    Bits/(Pixel*Frame)          : 0.399
    Stream size                 : 20.0 GiB (83%)
    Title                       : REMUX HD1080p [CinemaniaHDD]
    Default                     : Yes
    Forced                      : Yes

    Audio #1
    ID                          : 2
    Format                      : AC-3
    Format/Info                 : Audio Coding 3
    Commercial name             : Dolby Digital
    Codec ID                    : A_AC3
    Duration                    : 2 h 24 min
    Bit rate mode               : Constant
    Bit rate                    : 448 kb/s
    Channel(s)                  : 6 channels
    Channel layout              : L R C LFE Ls Rs
    Sampling rate               : 48.0 kHz
    Frame rate                  : 31.250 FPS (1536 SPF)
    Compression mode            : Lossy
    Stream size                 : 463 MiB (2%)
    Title                       : Español Latino [CinemaniaHDD]
    Language                    : Spanish
    Service kind                : Complete Main
    Default                     : Yes
    Forced                      : Yes

    Audio #2
    ID                          : 3
    Format                      : DTS XLL
    Format/Info                 : Digital Theater Systems
    Commercial name             : DTS-HD Master Audio
    Codec ID                    : A_DTS
    Duration                    : 2 h 24 min
    Bit rate mode               : Variable
    Bit rate                    : 3 736 kb/s
    Channel(s)                  : 6 channels
    Channel layout              : C L R Ls Rs LFE
    Sampling rate               : 48.0 kHz
    Frame rate                  : 93.750 FPS (512 SPF)
    Bit depth                   : 24 bits
    Compression mode            : Lossless
    Stream size                 : 3.77 GiB (16%)
    Title                       : Ingles [CinemaniaHDD]
    Language                    : English
    Default                     : No
    Forced                      : No

    Text #1
    ID                          : 4
    Format                      : PGS
    Muxing mode                 : zlib
    Codec ID                    : S_HDMV/PGS
    Codec ID/Info               : Picture based subtitle format used on BDs/HD-DVDs
    Duration                    : 2 h 23 min
    Bit rate                    : 15.2 kb/s
    Count of elements           : 1662
    Stream size                 : 15.6 MiB (0%)
    Title                       : Español-PGS [CinemaniaHDD]
    Language                    : Spanish
    Default                     : No
    Forced                      : No

    Text #2
    ID                          : 5
    Format                      : PGS
    Muxing mode                 : zlib
    Codec ID                    : S_HDMV/PGS
    Codec ID/Info               : Picture based subtitle format used on BDs/HD-DVDs
    Duration                    : 2 h 12 min
    Bit rate                    : 18.9 kb/s
    Count of elements           : 1964
    Stream size                 : 17.9 MiB (0%)
    Title                       : Ingles-PGS [CinemaniaHDD]
    Language                    : English
    Default                     : No
    Forced                      : No

    Text #3
    ID                          : 6
    Format                      : UTF-8
    Codec ID                    : S_TEXT/UTF8
    Codec ID/Info               : UTF-8 Plain Text
    Duration                    : 2 h 14 min
    Bit rate                    : 0 b/s
    Count of elements           : 14
    Stream size                 : 724 Bytes (0%)
    Title                       : Forzados-SRT [CinemaniaHDD]
    Language                    : Spanish
    Default                     : Yes
    Forced                      : Yes

    Text #4
    ID                          : 7
    Format                      : UTF-8
    Codec ID                    : S_TEXT/UTF8
    Codec ID/Info               : UTF-8 Plain Text
    Duration                    : 2 h 14 min
    Bit rate                    : 26 b/s
    Count of elements           : 830
    Stream size                 : 26.5 KiB (0%)
    Title                       : Español-SRT [CinemaniaHDD]
    Language                    : Spanish
    Default                     : No
    Forced                      : No

    Menu
    00:00:00.000                : :Chapter 01
    00:03:33.547                : :Chapter 02
    00:08:34.180                : :Chapter 03
    00:10:31.965                : :Chapter 04
    00:11:57.175                : :Chapter 05
    00:13:32.061                : :Chapter 06
    00:19:04.768                : :Chapter 07
    00:20:21.845                : :Chapter 08
    00:22:37.731                : :Chapter 09
    00:24:08.739                : :Chapter 10
    00:26:50.108                : :Chapter 11
    00:29:33.772                : :Chapter 12
    00:33:16.327                : :Chapter 13
    00:36:28.519                : :Chapter 14
    00:40:31.596                : :Chapter 15
    00:44:20.741                : :Chapter 16
    00:47:00.234                : :Chapter 17
    00:49:21.416                : :Chapter 18
    00:52:47.873                : :Chapter 19
    00:56:22.963                : :Chapter 20
    00:58:11.529                : :Chapter 21
    01:02:37.587                : :Chapter 22
    01:07:37.428                : :Chapter 23
    01:08:51.836                : :Chapter 24
    01:12:10.492                : :Chapter 25
    01:14:51.111                : :Chapter 26
    01:16:49.354                : :Chapter 27
    01:21:20.041                : :Chapter 28
    01:23:49.649                : :Chapter 29
    01:26:45.325                : :Chapter 30
    01:29:55.848                : :Chapter 31
    01:33:27.393                : :Chapter 32
    01:35:08.994                : :Chapter 33
    01:37:16.121                : :Chapter 34
    01:39:03.937                : :Chapter 35
    01:42:51.039                : :Chapter 36
    01:44:57.958                : :Chapter 37
    01:48:53.735                : :Chapter 38
    01:54:57.682                : :Chapter 39
    01:58:55.753                : :Chapter 40
    02:01:04.423                : :Chapter 41
    02:04:11.318                : :Chapter 42
    02:09:29.678                : :Chapter 43
    02:11:15.951                : :Chapter 44
    02:12:32.903                : :Chapter 45
    02:15:34.459                : :Chapter 46
    02:24:32.246                : :Chapter 47

  • Peso: 24.3 GiB

Sinopsis

Descargar Cruzada (2005) Theatrical Cut REMUX 1080p Latino. Siglo XII, Europa entera está inmersa en las Cruzadas para recuperar la Tierra Santa. Godofredo de Ibelin, caballero respetado por el rey de Jerusalén y comprometido con el mantenimiento de la paz en la región, emprende la búsqueda de su hijo ilegítimo, Balian, joven herrero francés que llora la pérdida de su mujer y su hijo. Godofredo convence a su hijo para que lo acompañe en su misión. Tras la muerte de su padre, Balian hereda sus tierras y su título de caballero en Jerusalén, ciudad en la que cristianos, musulmanes y judíos han conseguido convivir pacíficamente durante la tregua entre la Segunda y la Tercera Cruzada. Con una fidelidad inquebrantable, Balian sirve a su rey y, además, se enamora de la princesa Sibylla, la enigmática hermana del monarca.

Disponible Solo Para VIP!!!

Ficha técnica

Video trailer de la película

Enlaces de descarga

Rip de Bluray

Descargar Cruzada (2005) Theatrical Cut REMUX 1080p Latino


Aportes de DPeliculasHDmega la pass es:dpeliculashdmega.org Aportes de CinemaniaHD la pass es:cinemaniahdd.com
Guardado en : Acción , Aventura , Bélica , Drama , Historia , Remux

Películas relacionadas

  • Un mundo extraño (2022) HD 1080p Latino

    Un mundo extraño (2022) HD 1080p Latino

    2022
    Un mundo extraño (2022) HD 1080p Latino

    1h 42m 2022

    Descargar Un mundo extraño (2022) HD 1080p Latino. Los Clades son una familia conocida en todo el mundo,...

    Director: Thai Bettistea

    Género: Animación

    Actores: Reed Buck

  • Un mundo extraño (2022) REMUX 1080p Latino

    Un mundo extraño (2022) REMUX 1080p Latino

    2022
    Un mundo extraño (2022) REMUX 1080p Latino

    1h 42m 2022

    Descargar Un mundo extraño (2022) REMUX 1080p. Un viaje a una tierra inexplorada y traicionera en la...

    Director: Thai Bettistea

    Género: Animación

    Actores: Reed Buck

  • Stromboli (2022) NF WEB-DL 1080p Latino

    Stromboli (2022) NF WEB-DL 1080p Latino

    2022
    Stromboli (2022) NF WEB-DL 1080p Latino

    1h 26m 2022

    Descargar Stromboli (2022) NF WEB-DL 1080p Latino. Sara, una mujer que se ha divorciado recientemente,...

    Director: Michiel van Erp

    Género: Drama

    Actores: Tim McInnerny

descargar Cruzada (2005) Theatrical Cut REMUX 1080p Latino Full 1080p 1080p gratis, Cruzada (2005) Theatrical Cut REMUX 1080p Latino Full 1080p mega 1 link, Cruzada (2005) Theatrical Cut REMUX 1080p Latino Full 1080p pelicula completa, descargar Cruzada (2005) Theatrical Cut REMUX 1080p Latino Full 1080p gratis en mega.

Cruzada (2005) Theatrical Cut REMUX 1080p Latino pelicula full hd, Cruzada (2005) Theatrical Cut REMUX 1080p Latino mega latino, Cruzada (2005) Theatrical Cut REMUX 1080p Latino 4k latino, Cruzada (2005) Theatrical Cut REMUX 1080p Latino pelicula completa, Cruzada (2005) Theatrical Cut REMUX 1080p Latino descargar gratis, descargar Cruzada (2005) Theatrical Cut REMUX 1080p Latino pelicula latino, Cruzada (2005) Theatrical Cut REMUX 1080p Latino 1 link mega, Cruzada (2005) Theatrical Cut REMUX 1080p Latino 1 link google drive, Cruzada (2005) Theatrical Cut REMUX 1080p Latino hd 1080p latino.
Comentarios 0