×

¿Problemas para descargar con Mozilla, EDGE? Deshabilita la opción "Abrir vinculos en una pestaña nueva" tal como lo muestra ésta imagen.

Cruzada (2005) Director’s Roadshow Cut Full HD 1080p Latino-CMHDD

72 vistas

Información de Cruzada (2005) Director’s Roadshow Cut Full HD 1080p Latino-CMHDD

Datos de la película

  • Calidad: Full 1080p
  • Audio: Se especifica abajo de la Sinopsis
  • Subtitulos: Español Latino PGS - Ingles PGS
  • Resolución: 1920x1080p
  • Formato: MKV
  • Codec: H.264
  • Encoder: CinefiloCool
  • Mediainfo: Clic para Mostrar Datos Ver
  • Kingdom.Of.Heaven.2005.DC.RShow.Bluray.FullHD.1080p.x264.Latino-CC@CMHDD.mkv
    Format                      : Matroska
    Format version              : Version 4
    File size                   : 10.8 GiB
    Duration                    : 3 h 13 min
    Overall bit rate            : 7 984 kb/s
    Movie name                  : Kingdom Of Heaven (2005) CinemaniaHDD.Net
    Encoded date                : UTC 2024-04-16 05:52:04
    Writing application         : mkvmerge v56.1.0 ('My Friend') 64-bit
    Writing library             : libebml v1.4.2 + libmatroska v1.6.4
    Attachments                 : CINEMANIAHD.png

    Video
    ID                          : 1
    Format                      : AVC
    Format/Info                 : Advanced Video Codec
    Format profile              : High@L4.1
    Format settings             : CABAC / 4 Ref Frames
    Format settings, CABAC      : Yes
    Format settings, Reference  : 4 frames
    Codec ID                    : V_MPEG4/ISO/AVC
    Duration                    : 3 h 13 min
    Bit rate                    : 5 818 kb/s
    Width                       : 1 920 pixels
    Height                      : 1 080 pixels
    Display aspect ratio        : 16:9
    Frame rate mode             : Constant
    Frame rate                  : 23.976 (24000/1001) FPS
    Color space                 : YUV
    Chroma subsampling          : 4:2:0
    Bit depth                   : 8 bits
    Scan type                   : Progressive
    Bits/(Pixel*Frame)          : 0.117
    Stream size                 : 7.88 GiB (73%)
    Title                       : Full HD1080p [CinemaniaHDD]
    Writing library             : x264 core 163 r3059 b684ebe0
    Encoding settings           : cabac=1 / ref=4 / deblock=1:0:0 / analyse=0x3:0x133 / me=tesa / subme=11 / psy=1 / psy_rd=1.00:0.00 / mixed_ref=1 / me_range=24 / chroma_me=1 / trellis=2 / 8x8dct=1 / cqm=0 / deadzone=21,11 / fast_pskip=0 / chroma_qp_offset=-2 / threads=24 / lookahead_threads=6 / sliced_threads=0 / nr=0 / decimate=1 / interlaced=0 / bluray_compat=0 / constrained_intra=0 / bframes=16 / b_pyramid=2 / b_adapt=2 / b_bias=0 / direct=3 / weightb=1 / open_gop=0 / weightp=2 / keyint=240 / keyint_min=24 / scenecut=40 / intra_refresh=0 / rc_lookahead=60 / rc=crf / mbtree=1 / crf=20.0 / qcomp=0.60 / qpmin=0 / qpmax=69 / qpstep=4 / vbv_maxrate=62500 / vbv_bufsize=78125 / crf_max=0.0 / nal_hrd=none / filler=0 / ip_ratio=1.40 / aq=1:1.00
    Default                     : Yes
    Forced                      : Yes
    Color range                 : Limited
    Color primaries             : BT.709
    Transfer characteristics    : BT.709
    Matrix coefficients         : BT.709

    Audio #1
    ID                          : 2
    Format                      : AC-3
    Format/Info                 : Audio Coding 3
    Commercial name             : Dolby Digital
    Codec ID                    : A_AC3
    Duration                    : 3 h 13 min
    Bit rate mode               : Constant
    Bit rate                    : 640 kb/s
    Channel(s)                  : 6 channels
    Channel layout              : L R C LFE Ls Rs
    Sampling rate               : 48.0 kHz
    Frame rate                  : 31.250 FPS (1536 SPF)
    Compression mode            : Lossy
    Stream size                 : 888 MiB (8%)
    Title                       : Español Latino [CinemaniaHDD]
    Language                    : Spanish
    Service kind                : Complete Main
    Default                     : Yes
    Forced                      : Yes

    Audio #2
    ID                          : 3
    Format                      : DTS
    Format/Info                 : Digital Theater Systems
    Codec ID                    : A_DTS
    Duration                    : 3 h 13 min
    Bit rate mode               : Constant
    Bit rate                    : 1 509 kb/s
    Channel(s)                  : 6 channels
    Channel layout              : C L R Ls Rs LFE
    Sampling rate               : 48.0 kHz
    Frame rate                  : 93.750 FPS (512 SPF)
    Bit depth                   : 24 bits
    Compression mode            : Lossy
    Stream size                 : 2.04 GiB (19%)
    Title                       : Ingles [CinemaniaHDD]
    Language                    : English
    Default                     : No
    Forced                      : No

    Text #1
    ID                          : 4
    Format                      : PGS
    Muxing mode                 : zlib
    Codec ID                    : S_HDMV/PGS
    Codec ID/Info               : Picture based subtitle format used on BDs/HD-DVDs
    Duration                    : 3 h 13 min
    Bit rate                    : 15.7 kb/s
    Count of elements           : 2300
    Stream size                 : 21.8 MiB (0%)
    Title                       : Español-PGS [CinemaniaHDD]
    Language                    : Spanish
    Default                     : No
    Forced                      : No

    Text #2
    ID                          : 5
    Format                      : PGS
    Muxing mode                 : zlib
    Codec ID                    : S_HDMV/PGS
    Codec ID/Info               : Picture based subtitle format used on BDs/HD-DVDs
    Duration                    : 3 h 3 min
    Bit rate                    : 18.5 kb/s
    Count of elements           : 2536
    Stream size                 : 24.3 MiB (0%)
    Title                       : Ingles-PGS [CinemaniaHDD]
    Language                    : English
    Default                     : No
    Forced                      : No

    Text #3
    ID                          : 6
    Format                      : UTF-8
    Codec ID                    : S_TEXT/UTF8
    Codec ID/Info               : UTF-8 Plain Text
    Duration                    : 2 h 29 min
    Bit rate                    : 0 b/s
    Count of elements           : 8
    Stream size                 : 219 Bytes (0%)
    Title                       : Forzados-SRT [CinemaniaHDD]
    Language                    : Spanish
    Default                     : Yes
    Forced                      : Yes

    Text #4
    ID                          : 7
    Format                      : UTF-8
    Codec ID                    : S_TEXT/UTF8
    Codec ID/Info               : UTF-8 Plain Text
    Duration                    : 3 h 3 min
    Bit rate                    : 30 b/s
    Count of elements           : 1257
    Stream size                 : 40.8 KiB (0%)
    Title                       : Español-SRT [CinemaniaHDD]
    Language                    : Spanish
    Default                     : No
    Forced                      : No

    Menu
    00:00:00.000                : :Chapter 01
    00:02:22.309                : :Chapter 02
    00:06:11.621                : :Chapter 03
    00:09:04.377                : :Chapter 04
    00:11:03.496                : :Chapter 05
    00:13:18.715                : :Chapter 06
    00:16:18.978                : :Chapter 07
    00:19:56.278                : :Chapter 08
    00:22:19.213                : :Chapter 09
    00:23:44.423                : :Chapter 10
    00:25:59.683                : :Chapter 11
    00:32:25.652                : :Chapter 12
    00:34:17.764                : :Chapter 13
    00:36:33.650                : :Chapter 14
    00:38:15.293                : :Chapter 15
    00:40:56.662                : :Chapter 16
    00:43:39.450                : :Chapter 17
    00:47:36.186                : :Chapter 18
    00:50:48.378                : :Chapter 19
    00:53:18.028                : :Chapter 20
    00:55:59.272                : :Chapter 21
    00:58:17.452                : :Chapter 22
    01:00:17.197                : :Chapter 23
    01:02:56.689                : :Chapter 24
    01:07:28.211                : :Chapter 25
    01:11:52.725                : :Chapter 26
    01:17:51.083                : :Chapter 27
    01:20:24.319                : :Chapter 28
    01:21:50.030                : :Chapter 29
    01:23:09.943                : :Chapter 30
    01:26:15.503                : :Chapter 31
    01:31:15.344                : :Chapter 32
    01:32:29.752                : :Chapter 33
    01:35:48.409                : :Chapter 34
    01:39:20.079                : :Chapter 35
    01:41:33.253                : :Chapter 36
    01:43:58.315                : :Chapter 37
    01:47:10.090                : :Chapter 38
    01:49:35.694                : :Chapter 39
    01:54:43.084                : :Chapter 40
    01:59:13.187                : :Chapter 41
    02:00:49.742                : :Chapter 42
    02:02:27.173                : :Chapter 43
    02:06:22.658                : :Chapter 44
    02:08:27.908                : :Chapter 45
    02:09:18.542                : :Chapter 46
    02:12:04.416                : :Chapter 47
    02:16:05.699                : :Chapter 48
    02:17:47.300                : :Chapter 49
    02:20:37.220                : :Chapter 50
    02:22:30.041                : :Chapter 51
    02:26:17.143                : :Chapter 52
    02:28:38.576                : :Chapter 53
    02:33:15.519                : :Chapter 54
    02:39:19.466                : :Chapter 55
    02:41:42.234                : :Chapter 56
    02:43:40.393                : :Chapter 57
    02:45:49.064                : :Chapter 58
    02:49:28.199                : :Chapter 59
    02:55:13.961                : :Chapter 60
    02:57:30.306                : :Chapter 61
    03:00:23.937                : :Chapter 62
    03:01:40.889                : :Chapter 63
    03:04:56.835                : :Chapter 64
    03:13:54.164                : :Chapter 65

  • Peso: 10.8 GiB

Sinopsis

Descargar Cruzada (2005) Director’s Roadshow Cut Full HD 1080p Latino-CMHDD. Siglo XII, Europa entera está inmersa en las Cruzadas para recuperar la Tierra Santa. Godofredo de Ibelin, caballero respetado por el rey de Jerusalén y comprometido con el mantenimiento de la paz en la región, emprende la búsqueda de su hijo ilegítimo, Balian, joven herrero francés que llora la pérdida de su mujer y su hijo. Godofredo convence a su hijo para que lo acompañe en su misión. Tras la muerte de su padre, Balian hereda sus tierras y su título de caballero en Jerusalén, ciudad en la que cristianos, musulmanes y judíos han conseguido convivir pacíficamente durante la tregua entre la Segunda y la Tercera Cruzada. Con una fidelidad inquebrantable, Balian sirve a su rey y, además, se enamora de la princesa Sibylla, la enigmática hermana del monarca.

Audio: Español Latino Hybrid AC3 5.1 Editado – Ingles DTS 5.1 Bluray
Audio Latino: Resster Thanks!! 🙂

Ficha técnica

Video trailer de la película

Enlaces de descarga

Rip de Bluray

Descargar Cruzada (2005) Director’s Roadshow Cut Full HD 1080p Latino-CMHDD




Aportes de DPeliculasHDmega la pass es:dpeliculashdmega.org Aportes de CinemaniaHD la pass es:cinemaniahdd.com Aportes recientes:cinemaniahdd.net

Películas relacionadas

descargar Cruzada (2005) Director’s Roadshow Cut Full HD 1080p Latino-CMHDD Full 1080p 1080p gratis, Cruzada (2005) Director’s Roadshow Cut Full HD 1080p Latino-CMHDD Full 1080p mega 1 link, Cruzada (2005) Director’s Roadshow Cut Full HD 1080p Latino-CMHDD Full 1080p pelicula completa, descargar Cruzada (2005) Director’s Roadshow Cut Full HD 1080p Latino-CMHDD Full 1080p gratis en mega.

Cruzada (2005) Director’s Roadshow Cut Full HD 1080p Latino-CMHDD pelicula full hd, Cruzada (2005) Director’s Roadshow Cut Full HD 1080p Latino-CMHDD mega latino, Cruzada (2005) Director’s Roadshow Cut Full HD 1080p Latino-CMHDD 4k latino, Cruzada (2005) Director’s Roadshow Cut Full HD 1080p Latino-CMHDD pelicula completa, Cruzada (2005) Director’s Roadshow Cut Full HD 1080p Latino-CMHDD descargar gratis, descargar Cruzada (2005) Director’s Roadshow Cut Full HD 1080p Latino-CMHDD pelicula latino, Cruzada (2005) Director’s Roadshow Cut Full HD 1080p Latino-CMHDD 1 link mega, Cruzada (2005) Director’s Roadshow Cut Full HD 1080p Latino-CMHDD 1 link google drive, Cruzada (2005) Director’s Roadshow Cut Full HD 1080p Latino-CMHDD hd 1080p latino.
Comentarios 0