×

¿Problemas para descargar con Mozilla, EDGE? Deshabilita la opción "Abrir vinculos en una pestaña nueva" tal como lo muestra ésta imagen.

Cruzada (2005) 2 Director’s Cut [DC & Roadshow] REMUX 1080p Latino

1.220 vistas

Información de Cruzada (2005) 2 Director’s Cut [DC & Roadshow] REMUX 1080p Latino

Datos de la película

  • Calidad: Full 1080p
  • Audio: Se especifica abajo de la Sinopsis
  • Subtitulos: Español Latino PGS - Ingles PGS
  • Resolución: 1920x1080p
  • Formato: MKV
  • Codec: H.264
  • Encoder: CinefiloCool
  • Mediainfo: Clic para Mostrar Datos Ver
  • Cruzada (2005) Director's Cut REMUX 1080p Latino Hybrid-CMHDD.mkv
    Format                      : Matroska
    Format version              : Version 4
    File size                   : 32.0 GiB
    Duration                    : 3 h 9 min
    Overall bit rate mode       : Variable
    Overall bit rate            : 24.2 Mb/s
    Movie name                  : Kingdom Of Heaven (2005) CinemaniaHDD.Net
    Encoded date                : UTC 2022-04-04 21:11:53
    Writing application         : mkvmerge v56.1.0 ('My Friend') 64-bit
    Writing library             : libebml v1.4.2 + libmatroska v1.6.4
    Attachments                 : CINEMANIAHD.png

    Video
    ID                          : 1
    Format                      : AVC
    Format/Info                 : Advanced Video Codec
    Format profile              : High@L4.1
    Format settings             : CABAC / 4 Ref Frames
    Format settings, CABAC      : Yes
    Format settings, Reference  : 4 frames
    Codec ID                    : V_MPEG4/ISO/AVC
    Duration                    : 3 h 9 min
    Bit rate mode               : Variable
    Bit rate                    : 20.0 Mb/s
    Maximum bit rate            : 37.5 Mb/s
    Width                       : 1 920 pixels
    Height                      : 1 080 pixels
    Display aspect ratio        : 16:9
    Frame rate mode             : Constant
    Frame rate                  : 23.976 (24000/1001) FPS
    Color space                 : YUV
    Chroma subsampling          : 4:2:0
    Bit depth                   : 8 bits
    Scan type                   : Progressive
    Bits/(Pixel*Frame)          : 0.402
    Stream size                 : 26.4 GiB (83%)
    Title                       : REMUX HD1080p [CinemaniaHDD]
    Default                     : Yes
    Forced                      : Yes

    Audio #1
    ID                          : 2
    Format                      : AC-3
    Format/Info                 : Audio Coding 3
    Commercial name             : Dolby Digital
    Codec ID                    : A_AC3
    Duration                    : 3 h 9 min
    Bit rate mode               : Constant
    Bit rate                    : 640 kb/s
    Channel(s)                  : 6 channels
    Channel layout              : L R C LFE Ls Rs
    Sampling rate               : 48.0 kHz
    Frame rate                  : 31.250 FPS (1536 SPF)
    Compression mode            : Lossy
    Stream size                 : 868 MiB (3%)
    Title                       : Español Latino [CinemaniaHDD]
    Language                    : Spanish
    Service kind                : Complete Main
    Default                     : Yes
    Forced                      : Yes

    Audio #2
    ID                          : 3
    Format                      : DTS XLL
    Format/Info                 : Digital Theater Systems
    Commercial name             : DTS-HD Master Audio
    Codec ID                    : A_DTS
    Duration                    : 3 h 9 min
    Bit rate mode               : Variable
    Bit rate                    : 3 570 kb/s
    Channel(s)                  : 6 channels
    Channel layout              : C L R Ls Rs LFE
    Sampling rate               : 48.0 kHz
    Frame rate                  : 93.750 FPS (512 SPF)
    Bit depth                   : 24 bits
    Compression mode            : Lossless
    Stream size                 : 4.73 GiB (15%)
    Title                       : Ingles [CinemaniaHDD]
    Language                    : English
    Default                     : No
    Forced                      : No

    Text #1
    ID                          : 4
    Format                      : PGS
    Muxing mode                 : zlib
    Codec ID                    : S_HDMV/PGS
    Codec ID/Info               : Picture based subtitle format used on BDs/HD-DVDs
    Duration                    : 3 h 9 min
    Bit rate                    : 16.1 kb/s
    Count of elements           : 2296
    Stream size                 : 21.8 MiB (0%)
    Title                       : Español-PGS [CinemaniaHDD]
    Language                    : Spanish
    Default                     : No
    Forced                      : No

    Text #2
    ID                          : 5
    Format                      : PGS
    Muxing mode                 : zlib
    Codec ID                    : S_HDMV/PGS
    Codec ID/Info               : Picture based subtitle format used on BDs/HD-DVDs
    Duration                    : 2 h 59 min
    Bit rate                    : 18.9 kb/s
    Count of elements           : 2536
    Stream size                 : 24.2 MiB (0%)
    Title                       : Ingles-PGS [CinemaniaHDD]
    Language                    : English
    Default                     : No
    Forced                      : No

    Text #3
    ID                          : 6
    Format                      : UTF-8
    Codec ID                    : S_TEXT/UTF8
    Codec ID/Info               : UTF-8 Plain Text
    Duration                    : 1 h 29 min
    Bit rate                    : 0 b/s
    Count of elements           : 5
    Stream size                 : 171 Bytes (0%)
    Title                       : Forzados-SRT [CinemaniaHDD]
    Language                    : Spanish
    Default                     : Yes
    Forced                      : Yes

    Text #4
    ID                          : 7
    Format                      : UTF-8
    Codec ID                    : S_TEXT/UTF8
    Codec ID/Info               : UTF-8 Plain Text
    Duration                    : 2 h 59 min
    Bit rate                    : 30 b/s
    Count of elements           : 1252
    Stream size                 : 40.6 KiB (0%)
    Title                       : Español-SRT [CinemaniaHDD]
    Language                    : Spanish
    Default                     : No
    Forced                      : No

    Menu: Chapters Numbers

    Cruzada (2005) DC ROADSHOW REMUX 1080p Latino Hybrid-CMHDD.mkv
    Format                      : Matroska
    Format version              : Version 4
    File size                   : 32.2 GiB
    Duration                    : 3 h 13 min
    Overall bit rate mode       : Variable
    Overall bit rate            : 23.8 Mb/s
    Movie name                  : Kingdom Of Heaven (2005) CinemaniaHDD.Net
    Encoded date                : UTC 2022-04-04 21:38:34
    Writing application         : mkvmerge v56.1.0 ('My Friend') 64-bit
    Writing library             : libebml v1.4.2 + libmatroska v1.6.4
    Attachments                 : CINEMANIAHD.png

    Video
    ID                          : 1
    Format                      : AVC
    Format/Info                 : Advanced Video Codec
    Format profile              : High@L4.1
    Format settings             : CABAC / 4 Ref Frames
    Format settings, CABAC      : Yes
    Format settings, Reference  : 4 frames
    Codec ID                    : V_MPEG4/ISO/AVC
    Duration                    : 3 h 13 min
    Bit rate mode               : Variable
    Bit rate                    : 19.5 Mb/s
    Maximum bit rate            : 37.5 Mb/s
    Width                       : 1 920 pixels
    Height                      : 1 080 pixels
    Display aspect ratio        : 16:9
    Frame rate mode             : Constant
    Frame rate                  : 23.976 (24000/1001) FPS
    Color space                 : YUV
    Chroma subsampling          : 4:2:0
    Bit depth                   : 8 bits
    Scan type                   : Progressive
    Bits/(Pixel*Frame)          : 0.393
    Stream size                 : 26.5 GiB (82%)
    Title                       : REMUX HD1080p [CinemaniaHDD]
    Default                     : Yes
    Forced                      : Yes

    Audio #1
    ID                          : 2
    Format                      : AC-3
    Format/Info                 : Audio Coding 3
    Commercial name             : Dolby Digital
    Codec ID                    : A_AC3
    Duration                    : 3 h 13 min
    Bit rate mode               : Constant
    Bit rate                    : 640 kb/s
    Channel(s)                  : 6 channels
    Channel layout              : L R C LFE Ls Rs
    Sampling rate               : 48.0 kHz
    Frame rate                  : 31.250 FPS (1536 SPF)
    Compression mode            : Lossy
    Stream size                 : 888 MiB (3%)
    Title                       : Español Latino [CinemaniaHDD]
    Language                    : Spanish
    Service kind                : Complete Main
    Default                     : Yes
    Forced                      : Yes

    Audio #2
    ID                          : 3
    Format                      : DTS XLL
    Format/Info                 : Digital Theater Systems
    Commercial name             : DTS-HD Master Audio
    Codec ID                    : A_DTS
    Duration                    : 3 h 13 min
    Bit rate mode               : Variable
    Bit rate                    : 3 564 kb/s
    Channel(s)                  : 6 channels
    Channel layout              : C L R Ls Rs LFE
    Sampling rate               : 48.0 kHz
    Frame rate                  : 93.750 FPS (512 SPF)
    Bit depth                   : 24 bits
    Compression mode            : Lossless
    Stream size                 : 4.83 GiB (15%)
    Title                       : Ingles [CinemaniaHDD]
    Language                    : English
    Default                     : No
    Forced                      : No

    Text #1
    ID                          : 4
    Format                      : PGS
    Muxing mode                 : zlib
    Codec ID                    : S_HDMV/PGS
    Codec ID/Info               : Picture based subtitle format used on BDs/HD-DVDs
    Duration                    : 3 h 13 min
    Bit rate                    : 15.7 kb/s
    Count of elements           : 2300
    Stream size                 : 21.8 MiB (0%)
    Title                       : Español-PGS [CinemaniaHDD]
    Language                    : Spanish
    Default                     : No
    Forced                      : No

    Text #2
    ID                          : 5
    Format                      : PGS
    Muxing mode                 : zlib
    Codec ID                    : S_HDMV/PGS
    Codec ID/Info               : Picture based subtitle format used on BDs/HD-DVDs
    Duration                    : 3 h 3 min
    Bit rate                    : 18.5 kb/s
    Count of elements           : 2536
    Stream size                 : 24.3 MiB (0%)
    Title                       : Ingles-PGS [CinemaniaHDD]
    Language                    : English
    Default                     : No
    Forced                      : No

    Text #3
    ID                          : 6
    Format                      : UTF-8
    Codec ID                    : S_TEXT/UTF8
    Codec ID/Info               : UTF-8 Plain Text
    Duration                    : 2 h 29 min
    Bit rate                    : 0 b/s
    Count of elements           : 8
    Stream size                 : 219 Bytes (0%)
    Title                       : Forzados-SRT [CinemaniaHDD]
    Language                    : Spanish
    Default                     : Yes
    Forced                      : Yes

    Text #4
    ID                          : 7
    Format                      : UTF-8
    Codec ID                    : S_TEXT/UTF8
    Codec ID/Info               : UTF-8 Plain Text
    Duration                    : 3 h 3 min
    Bit rate                    : 30 b/s
    Count of elements           : 1257
    Stream size                 : 40.8 KiB (0%)
    Title                       : Español-SRT [CinemaniaHDD]
    Language                    : Spanish
    Default                     : No
    Forced                      : No

    Menu: Chapters Numbers

  • Peso: 32.0 GiB - DC | 32.2 GiB - RShow

Sinopsis

Descargar Cruzada (2005) 2 Director’s Cut [DC & Roadshow] REMUX 1080p Latino. Siglo XII, Europa entera está inmersa en las Cruzadas para recuperar la Tierra Santa. Godofredo de Ibelin, caballero respetado por el rey de Jerusalén y comprometido con el mantenimiento de la paz en la región, emprende la búsqueda de su hijo ilegítimo, Balian, joven herrero francés que llora la pérdida de su mujer y su hijo. Godofredo convence a su hijo para que lo acompañe en su misión. Tras la muerte de su padre, Balian hereda sus tierras y su título de caballero en Jerusalén, ciudad en la que cristianos, musulmanes y judíos han conseguido convivir pacíficamente durante la tregua entre la Segunda y la Tercera Cruzada. Con una fidelidad inquebrantable, Balian sirve a su rey y, además, se enamora de la princesa Sibylla, la enigmática hermana del monarca.

Audio: Español Latino Hybrid AC3 5.1 Editado – Ingles DTS-HD 5.1 Bluray
Audio Latino: Resster Thanks!! 🙂
RESUBIDA, Disponible Solo para VIP!!

Nota:
– Se Incluyen Ambas Versiones (Director’s  Cut y Roadshow Cut) La versión del director de «Kingdom of Heaven» de Ridley Scott ofrece varias escenas nuevas que mejoran la trama y reintegra escenas violentas que no estaban en la versión teatral. Por lo tanto, el tiempo de funcionamiento del DC es de más de 3 horas, además, la película tuvo que ser recortada para obtener una calificación R.

Ficha técnica

Video trailer de la película

Enlaces de descarga

Rip de Bluray

Descargar Cruzada (2005) 2 Director’s Cut [DC & Roadshow] REMUX 1080p Latino


Aportes de DPeliculasHDmega la pass es:dpeliculashdmega.org Aportes de CinemaniaHD la pass es:cinemaniahdd.com Aportes recientes:cinemaniahdd.net
Guardado en : Acción , Aventura , Bélica , Drama , Historia , Remux

Películas relacionadas

  • Red de venganza (2023) HD 1080p Latino

    Red de venganza (2023) HD 1080p Latino

    2023
    Red de venganza (2023) HD 1080p Latino

    1h 25m 2023

    Descargar Red de venganza (2023) HD 1080p Latino. Analiza los problemas que surgen entre una madre (Summer...

    Director: Amy Redford

    Género: Drama

    Actores: Summer Phoenix

  • Red de venganza (2023) REMUX 1080p Latino

    Red de venganza (2023) REMUX 1080p Latino

    2023
    Red de venganza (2023) REMUX 1080p Latino

    1h 25m 2023

    Descargar Red de venganza (2023) REMUX 1080p Latino. Analiza los problemas que surgen entre una madre...

    Director: Amy Redford

    Género: Drama

    Actores: Summer Phoenix

  • Recuerdos Mortales (2024) WEB-DL 1080p Latino

    Recuerdos Mortales (2024) WEB-DL 1080p Latino

    2024
    Recuerdos Mortales (2024) WEB-DL 1080p Latino

    1h 52m 2024

    Descargar Recuerdos Mortales (2024) WEB-DL 1080p Latino. Después de someterse a un tratamiento de vanguardia...

    Director: Adam Cooper

    Género: Crimen

    Actores: Tommy Flanagan

descargar Cruzada (2005) 2 Director’s Cut [DC & Roadshow] REMUX 1080p Latino Full 1080p 1080p gratis, Cruzada (2005) 2 Director’s Cut [DC & Roadshow] REMUX 1080p Latino Full 1080p mega 1 link, Cruzada (2005) 2 Director’s Cut [DC & Roadshow] REMUX 1080p Latino Full 1080p pelicula completa, descargar Cruzada (2005) 2 Director’s Cut [DC & Roadshow] REMUX 1080p Latino Full 1080p gratis en mega.

Cruzada (2005) 2 Director’s Cut [DC & Roadshow] REMUX 1080p Latino pelicula full hd, Cruzada (2005) 2 Director’s Cut [DC & Roadshow] REMUX 1080p Latino mega latino, Cruzada (2005) 2 Director’s Cut [DC & Roadshow] REMUX 1080p Latino 4k latino, Cruzada (2005) 2 Director’s Cut [DC & Roadshow] REMUX 1080p Latino pelicula completa, Cruzada (2005) 2 Director’s Cut [DC & Roadshow] REMUX 1080p Latino descargar gratis, descargar Cruzada (2005) 2 Director’s Cut [DC & Roadshow] REMUX 1080p Latino pelicula latino, Cruzada (2005) 2 Director’s Cut [DC & Roadshow] REMUX 1080p Latino 1 link mega, Cruzada (2005) 2 Director’s Cut [DC & Roadshow] REMUX 1080p Latino 1 link google drive, Cruzada (2005) 2 Director’s Cut [DC & Roadshow] REMUX 1080p Latino hd 1080p latino.
Comentarios 0