×

¿Problemas para descargar con Mozilla, EDGE? Deshabilita la opción "Abrir vinculos en una pestaña nueva" tal como lo muestra ésta imagen.

King Richard (2021) REMUX 4K HDR Latino – CMHDD

115 vistas

Información de King Richard (2021) REMUX 4K HDR Latino – CMHDD

Datos de la película

  • Calidad: 4K HDR
  • Audio: Español Latino AC3 5.1 BLURAY - Ingles AC3 5.1 BLURAY
  • Subtitulos: Español Latino PGS
  • Resolución: 3840x2160p
  • Formato: MKV
  • Codec: H.264
  • Encoder: Dracarys
  • Mediainfo: Clic para Mostrar Datos Ver
  • Format                      : Matroska
    Format version              : Version 4
    File size                   : 71.9 GiB
    Duration                    : 2 h 24 min
    Overall bit rate mode       : Variable
    Overall bit rate            : 71.1 Mb/s
    Movie name                  : King Richard (2021) REMUX 4K HDR Latino - CMHDD
    Encoded date                : UTC 2022-04-24 19:43:00
    Writing application         : mkvmerge v17.0.0 ('Be Ur Friend') 64-bit
    Writing library             : libebml v1.3.5 + libmatroska v1.4.8

    Video
    ID                          : 1
    Format                      : HEVC
    Format/Info                 : High Efficiency Video Coding
    Format profile              : Main 10@L5.1@High
    HDR format                  : SMPTE ST 2086, HDR10 compatible
    Codec ID                    : V_MPEGH/ISO/HEVC
    Duration                    : 2 h 24 min
    Bit rate                    : 67.1 Mb/s
    Width                       : 3 840 pixels
    Height                      : 2 160 pixels
    Display aspect ratio        : 16:9
    Frame rate mode             : Constant
    Frame rate                  : 23.976 (24000/1001) FPS
    Color space                 : YUV
    Chroma subsampling          : 4:2:0 (Type 2)
    Bit depth                   : 10 bits
    Bits/(Pixel*Frame)          : 0.337
    Stream size                 : 67.8 GiB (94%)
    Default                     : Yes
    Forced                      : No
    Color range                 : Limited
    Color primaries             : BT.2020
    Transfer characteristics    : PQ
    Matrix coefficients         : BT.2020 non-constant
    Mastering display color pri : Display P3
    Mastering display luminance : min: 0.0001 cd/m2, max: 1000 cd/m2
    Maximum Content Light Level : 279 cd/m2
    Maximum Frame-Average Light : 38 cd/m2

    Audio #1
    ID                          : 2
    Format                      : MLP FBA 16-ch
    Format/Info                 : Meridian Lossless Packing FBA with 16-channel presentation
    Commercial name             : Dolby TrueHD with Dolby Atmos
    Codec ID                    : A_TRUEHD
    Duration                    : 2 h 24 min
    Bit rate mode               : Variable
    Bit rate                    : 2 838 kb/s
    Maximum bit rate            : 3 645 kb/s
    Channel(s)                  : 8 channels
    Channel layout              : L R C LFE Ls Rs Lb Rb
    Sampling rate               : 48.0 kHz
    Frame rate                  : 1 200.000 FPS (40 SPF)
    Compression mode            : Lossless
    Delay relative to video     : 18 ms
    Stream size                 : 2.87 GiB (4%)
    Language                    : English
    Default                     : No
    Forced                      : No
    Number of dynamic objects   : 11
    Bed channel count           : 1 channel
    Bed channel configuration   : LFE

    Audio #2
    ID                          : 3
    Format                      : AC-3
    Format/Info                 : Audio Coding 3
    Commercial name             : Dolby Digital
    Format settings             : Dolby Surround EX
    Codec ID                    : A_AC3
    Duration                    : 2 h 24 min
    Bit rate mode               : Constant
    Bit rate                    : 448 kb/s
    Channel(s)                  : 6 channels
    Channel layout              : L R C LFE Ls Rs
    Sampling rate               : 48.0 kHz
    Frame rate                  : 31.250 FPS (1536 SPF)
    Compression mode            : Lossy
    Delay relative to video     : 18 ms
    Stream size                 : 464 MiB (1%)
    Language                    : English
    Service kind                : Complete Main
    Default                     : No
    Forced                      : No

    Audio #3
    ID                          : 4
    Format                      : AC-3
    Format/Info                 : Audio Coding 3
    Commercial name             : Dolby Digital
    Codec ID                    : A_AC3
    Duration                    : 2 h 24 min
    Bit rate mode               : Constant
    Bit rate                    : 640 kb/s
    Channel(s)                  : 6 channels
    Channel layout              : L R C LFE Ls Rs
    Sampling rate               : 48.0 kHz
    Frame rate                  : 31.250 FPS (1536 SPF)
    Compression mode            : Lossy
    Delay relative to video     : 14 ms
    Stream size                 : 662 MiB (1%)
    Language                    : Spanish
    Service kind                : Complete Main
    Default                     : Yes
    Forced                      : No

    Text
    ID                          : 5
    Format                      : PGS
    Muxing mode                 : zlib
    Codec ID                    : S_HDMV/PGS
    Codec ID/Info               : Picture based subtitle format used on BDs/HD-DVDs
    Duration                    : 2 h 23 min
    Bit rate                    : 41.8 kb/s
    Count of elements           : 4106
    Stream size                 : 43.0 MiB (0%)
    Language                    : Spanish
    Default                     : No
    Forced                      : No

    Menu
    00:00:00.000                : en:Chapter 1
    00:10:36.886                : en:Chapter 2
    00:20:04.369                : en:Chapter 3
    00:28:38.717                : en:Chapter 4
    00:40:24.296                : en:Chapter 5
    00:50:42.664                : en:Chapter 6
    00:58:19.913                : en:Chapter 7
    01:10:56.502                : en:Chapter 8
    01:19:14.666                : en:Chapter 9
    01:29:03.379                : en:Chapter 10
    01:40:26.186                : en:Chapter 11
    01:50:23.491                : en:Chapter 12
    01:59:11.185                : en:Chapter 13
    02:11:52.779                : en:Chapter 14
    02:17:17.604                : en:Chapter 15

  • Peso: 71.9 GiB

Sinopsis

Biopic sobre Richard Williams, un padre inasequible al desaliento que ayudó a criar a dos de las deportistas más extraordinarias de todos los tiempos, dos atletas que acabarían cambiando para siempre el deporte del tenis. Richard tenía una visión muy clara del futuro de sus hijas y sirviéndose de métodos poco convencionales, elaboró un plan que llevaría a Venus y Serena Williams de las calles de Compton, California, al olimpo de deporte convirtiéndolas en iconos legendarios.

Ficha técnica

Video trailer de la película

Enlaces de descarga

Rip de Bluray

Descargar King Richard (2021) REMUX 4K HDR Latino – CMHDD


Aportes de DPeliculasHDmega la pass es:dpeliculashdmega.org Aportes de CinemaniaHD la pass es:cinemaniahdd.com
Guardado en : Drama , Historia

Películas relacionadas

descargar King Richard (2021) REMUX 4K HDR Latino – CMHDD 4K HDR 1080p gratis, King Richard (2021) REMUX 4K HDR Latino – CMHDD 4K HDR mega 1 link, King Richard (2021) REMUX 4K HDR Latino – CMHDD 4K HDR pelicula completa, descargar King Richard (2021) REMUX 4K HDR Latino – CMHDD 4K HDR gratis en mega.

King Richard (2021) REMUX 4K HDR Latino – CMHDD pelicula full hd, King Richard (2021) REMUX 4K HDR Latino – CMHDD mega latino, King Richard (2021) REMUX 4K HDR Latino – CMHDD 4k latino, King Richard (2021) REMUX 4K HDR Latino – CMHDD pelicula completa, King Richard (2021) REMUX 4K HDR Latino – CMHDD descargar gratis, descargar King Richard (2021) REMUX 4K HDR Latino – CMHDD pelicula latino, King Richard (2021) REMUX 4K HDR Latino – CMHDD 1 link mega, King Richard (2021) REMUX 4K HDR Latino – CMHDD 1 link google drive, King Richard (2021) REMUX 4K HDR Latino – CMHDD hd 1080p latino.
Comentarios 0