Rey De Ladrones (2018) 1080p Subtitulado

943 vistas
1 estrella2 estrellas3 estrellas4 estrellas5 estrellas (Ninguna valoración todavía)
Cargando...

Información de Rey De Ladrones (2018) 1080p Subtitulado

Datos de la película

  • Calidad: 1080p
  • Audio: Ingles AC3 5.1 BLURAY
  • Subtitulos: Español Latino SRT - Ingles SRT
  • Resolución: 1920x808p
  • Formato: MKV
  • Codec: H.264
  • Encoder: CinefiloCool
  • Mediainfo: Clic para Mostrar Datos Ver
  • King Of Thieves (2018) 1080p Subtitulado.mkv
    Format                      : Matroska
    Format version              : Version 4
    File size                   : 2.93 GiB
    Duration                    : 1 h 47 min
    Overall bit rate            : 3 892 kb/s
    Movie name                  : CinemaniaHDD.Net
    Encoded date                : UTC 2019-03-27 06:14:16
    Writing application         : mkvmerge v30.1.0 ('Forever And More') 64-bit
    Writing library             : libebml v1.3.6 + libmatroska v1.4.9

    Video
    ID                          : 1
    Format                      : AVC
    Format/Info                 : Advanced Video Codec
    Format profile              : High@L4.1
    Format settings             : CABAC / 5 Ref Frames
    Format settings, CABAC      : Yes
    Format settings, ReFrames   : 5 frames
    Codec ID                    : V_MPEG4/ISO/AVC
    Duration                    : 1 h 47 min
    Bit rate                    : 3 500 kb/s
    Width                       : 1 920 pixels
    Height                      : 808 pixels
    Display aspect ratio        : 2.40:1
    Frame rate mode             : Constant
    Frame rate                  : 24.000 FPS
    Color space                 : YUV
    Chroma subsampling          : 4:2:0
    Bit depth                   : 8 bits
    Scan type                   : Progressive
    Bits/(Pixel*Frame)          : 0.094
    Stream size                 : 2.59 GiB (88%)
    Title                       : HD1080p [Bluray]
    Writing library             : x264 core 155 r2901 7d0ff22
    Encoding settings           : cabac=1 / ref=5 / deblock=1:0:0 / analyse=0x3:0x113 / me=hex / subme=8 / psy=1 / psy_rd=1.00:0.00 / mixed_ref=1 / me_range=16 / chroma_me=1 / trellis=2 / 8x8dct=1 / cqm=0 / deadzone=21,11 / fast_pskip=1 / chroma_qp_offset=-2 / threads=25 / lookahead_threads=4 / sliced_threads=0 / nr=0 / decimate=1 / interlaced=0 / bluray_compat=0 / constrained_intra=0 / bframes=3 / b_pyramid=2 / b_adapt=1 / b_bias=0 / direct=3 / weightb=1 / open_gop=0 / weightp=2 / keyint=240 / keyint_min=24 / scenecut=40 / intra_refresh=0 / rc_lookahead=50 / rc=abr / mbtree=1 / bitrate=3500 / ratetol=1.0 / qcomp=0.60 / qpmin=0 / qpmax=69 / qpstep=4 / vbv_maxrate=62500 / vbv_bufsize=78125 / nal_hrd=none / filler=0 / ip_ratio=1.40 / aq=1:1.00
    Default                     : Yes
    Forced                      : No
    Color range                 : Limited
    Color primaries             : BT.709
    Transfer characteristics    : BT.709
    Matrix coefficients         : BT.709

    Audio
    ID                          : 2
    Format                      : AC-3
    Format/Info                 : Audio Coding 3
    Commercial name             : Dolby Digital
    Codec ID                    : A_AC3
    Duration                    : 1 h 47 min
    Bit rate mode               : Constant
    Bit rate                    : 448 kb/s
    Channel(s)                  : 6 channels
    Channel layout              : L R C LFE Ls Rs
    Sampling rate               : 48.0 kHz
    Frame rate                  : 31.250 FPS (1536 SPF)
    Bit depth                   : 16 bits
    Compression mode            : Lossy
    Stream size                 : 345 MiB (12%)
    Title                       : AC3_5.1_Bluray_Eng
    Language                    : English
    Service kind                : Complete Main
    Default                     : Yes
    Forced                      : No

    Text #1
    ID                          : 3
    Format                      : UTF-8
    Codec ID                    : S_TEXT/UTF8
    Codec ID/Info               : UTF-8 Plain Text
    Duration                    : 1 h 43 min
    Bit rate                    : 55 b/s
    Count of elements           : 1495
    Stream size                 : 42.1 KiB (0%)
    Title                       : Sub_Esp
    Language                    : Spanish
    Default                     : Yes
    Forced                      : Yes

    Text #2
    ID                          : 4
    Format                      : UTF-8
    Codec ID                    : S_TEXT/UTF8
    Codec ID/Info               : UTF-8 Plain Text
    Duration                    : 1 h 46 min
    Bit rate                    : 58 b/s
    Count of elements           : 1378
    Stream size                 : 45.4 KiB (0%)
    Title                       : Sub_Eng
    Language                    : English
    Default                     : No
    Forced                      : No

    Menu
    00:00:00.000                : :Chapter 1
    00:10:32.958                : :Chapter 2
    00:20:26.458                : :Chapter 3
    00:28:28.958                : :Chapter 4
    00:38:04.292                : :Chapter 5
    00:49:33.583                : :Chapter 6
    00:58:11.042                : :Chapter 7
    01:05:10.292                : :Chapter 8
    01:19:09.625                : :Chapter 9
    01:27:06.042                : :Chapter 10
    01:33:19.000                : :Chapter 11
    01:43:00.792                : :Chapter 12

  • Peso: 2.93 GiB

Sinopsis

Descargar Rey De Ladrones | King Of Thieves (2018) 1080p Subtitulado, Mega, Google Drive. Una historia basada en hechos reales, sobre un grupo de ladrones retirados que logran un último golpe en el distrito joyero de Londres. Pero la codicia pronto transforma el éxito en una pesadilla.

Ficha técnica

  • Titulo original: King of Thieves
  • Fecha de lanzamiento: 04-09-2018 (United Kingdom)
  • Director: James Marsh
  • Género: Crimen, Drama, HD 1080p
  • Puntuación: 0.0 0 votos
  • Duración:
    1h 48m

Video trailer de la película

Enlaces de descarga

Rip de Bluray

Descargar Rey De Ladrones (2018) 1080p Subtitulado




Aportes de DPeliculasHDmega la pass es:dpeliculashdmega.org Aportes de CinemaniaHD la pass es:cinemaniahdd.com
Guardado en : Crimen , Drama , HD 1080p

Películas relacionadas

Rey De Ladrones (2018) 1080p Subtitulado pelicula full hd, Rey De Ladrones (2018) 1080p Subtitulado mega latino, Rey De Ladrones (2018) 1080p Subtitulado 4k latino, Rey De Ladrones (2018) 1080p Subtitulado pelicula completa, Rey De Ladrones (2018) 1080p Subtitulado descargar gratis, descargar Rey De Ladrones (2018) 1080p Subtitulado pelicula latino, Rey De Ladrones (2018) 1080p Subtitulado 1 link mega, Rey De Ladrones (2018) 1080p Subtitulado 1 link google drive, Rey De Ladrones (2018) 1080p Subtitulado hd 1080p latino.
Comentarios 0