×

¿Problemas para descargar con Mozilla, EDGE? Deshabilita la opción "Abrir vinculos en una pestaña nueva" tal como lo muestra ésta imagen.

El rey de los clones: La caída del Dr. Hwang Woo-suk (2023) NF WEB-DL 1080p Latino

249 vistas

Información de El rey de los clones: La caída del Dr. Hwang Woo-suk (2023) NF WEB-DL 1080p Latino

Datos de la película

  • Calidad: WEBDL
  • Audio: Se especifica abajo de la Sinopsis
  • Subtitulos: Español Latino SRT- FORZADOS SRT
  • Resolución: 1920x1080p
  • Formato: MKV
  • Codec: H.264
  • Encoder: Melkor
  • Mediainfo: Clic para Mostrar Datos Ver
  • El Rey De Los Clones La Caida (2023) NF WebDL 1080p Latino.mkv
    Format                      : Matroska
    Format version              : Version 4
    File size                   : 4.18 GiB
    Duration                    : 1 h 25 min
    Overall bit rate mode       : Variable
    Overall bit rate            : 6 972 kb/s
    Movie name                  : King of Clones (2023) CinemaniaHDD.Net
    Encoded date                : UTC 2023-06-24 04:15:35
    Writing application         : mkvmerge v56.1.0 ('My Friend') 64-bit
    Writing library             : libebml v1.4.2 + libmatroska v1.6.4
    Attachments                 : CINEMANIAHD.png

    Video
    ID                          : 1
    Format                      : AVC
    Format/Info                 : Advanced Video Codec
    Format profile              : Main@L4
    Format settings             : CABAC / 3 Ref Frames
    Format settings, CABAC      : Yes
    Format settings, Reference  : 3 frames
    Codec ID                    : V_MPEG4/ISO/AVC
    Duration                    : 1 h 25 min
    Bit rate mode               : Variable
    Bit rate                    : 5 000 kb/s
    Maximum bit rate            : 7 500 kb/s
    Width                       : 1 920 pixels
    Height                      : 1 080 pixels
    Display aspect ratio        : 16:9
    Frame rate mode             : Constant
    Frame rate                  : 25.000 FPS
    Color space                 : YUV
    Chroma subsampling          : 4:2:0
    Bit depth                   : 8 bits
    Scan type                   : Progressive
    Bits/(Pixel*Frame)          : 0.096
    Stream size                 : 2.95 GiB (71%)
    Title                       : Web HD1080p [CinemaniaHDD]
    Writing library             : x264 core 148 r2727 7d026e8
    Encoding settings           : cabac=1 / ref=3 / deblock=1:0:0 / analyse=0x1:0x111 / me=umh / subme=10 / psy=1 / psy_rd=1.00:0.00 / mixed_ref=1 / me_range=24 / chroma_me=1 / trellis=2 / 8x8dct=0 / cqm=0 / deadzone=21,11 / fast_pskip=1 / chroma_qp_offset=-2 / threads=8 / lookahead_threads=1 / sliced_threads=0 / nr=0 / decimate=1 / interlaced=0 / bluray_compat=0 / stitchable=1 / constrained_intra=0 / bframes=2 / b_pyramid=0 / b_adapt=2 / b_bias=0 / direct=3 / weightb=1 / open_gop=0 / weightp=2 / keyint=50 / keyint_min=26 / scenecut=0 / intra_refresh=0 / rc_lookahead=50 / rc=2pass / mbtree=1 / bitrate=5000 / ratetol=1.0 / qcomp=0.50 / qpmin=6 / qpmax=51 / qpstep=4 / cplxblur=20.0 / qblur=0.5 / vbv_maxrate=7500 / vbv_bufsize=10000 / nal_hrd=vbr / filler=0 / ip_ratio=1.40 / aq=1:1.00
    Default                     : Yes
    Forced                      : Yes

    Audio #1
    ID                          : 2
    Format                      : AC-3
    Format/Info                 : Audio Coding 3
    Commercial name             : Dolby Digital
    Codec ID                    : A_AC3
    Duration                    : 1 h 25 min
    Bit rate mode               : Constant
    Bit rate                    : 640 kb/s
    Channel(s)                  : 6 channels
    Channel layout              : L R C LFE Ls Rs
    Sampling rate               : 48.0 kHz
    Frame rate                  : 31.250 FPS (1536 SPF)
    Compression mode            : Lossy
    Stream size                 : 393 MiB (9%)
    Title                       : Español Latino AC3 [CinemaniaHDD]
    Language                    : Spanish
    Service kind                : Complete Main
    Default                     : Yes
    Forced                      : Yes

    Audio #2
    ID                          : 3
    Format                      : E-AC-3
    Format/Info                 : Enhanced AC-3
    Commercial name             : Dolby Digital Plus
    Codec ID                    : A_EAC3
    Duration                    : 1 h 25 min
    Bit rate mode               : Constant
    Bit rate                    : 640 kb/s
    Channel(s)                  : 6 channels
    Channel layout              : L R C LFE Ls Rs
    Sampling rate               : 48.0 kHz
    Frame rate                  : 31.250 FPS (1536 SPF)
    Compression mode            : Lossy
    Stream size                 : 393 MiB (9%)
    Title                       : Español Latino EAC3 [CinemaniaHDD]
    Language                    : Spanish
    Service kind                : Complete Main
    Default                     : No
    Forced                      : No

    Audio #3
    ID                          : 4
    Format                      : E-AC-3 JOC
    Format/Info                 : Enhanced AC-3 with Joint Object Coding
    Commercial name             : Dolby Digital Plus with Dolby Atmos
    Codec ID                    : A_EAC3
    Duration                    : 1 h 25 min
    Bit rate mode               : Constant
    Bit rate                    : 768 kb/s
    Channel(s)                  : 6 channels
    Channel layout              : L R C LFE Ls Rs
    Sampling rate               : 48.0 kHz
    Frame rate                  : 31.250 FPS (1536 SPF)
    Compression mode            : Lossy
    Stream size                 : 472 MiB (11%)
    Title                       : Coreano [CinemaniaHDD]
    Language                    : Korean
    Service kind                : Complete Main
    Default                     : No
    Forced                      : No
    Complexity index            : 16
    Number of dynamic objects   : 15
    Bed channel count           : 1 channel
    Bed channel configuration   : LFE

    Text #1
    ID                          : 5
    Format                      : UTF-8
    Codec ID                    : S_TEXT/UTF8
    Codec ID/Info               : UTF-8 Plain Text
    Duration                    : 1 h 24 min
    Bit rate                    : 4 b/s
    Count of elements           : 87
    Stream size                 : 2.72 KiB (0%)
    Title                       : Forzados-SRT [CinemaniaHDD]
    Language                    : Spanish
    Default                     : Yes
    Forced                      : Yes

    Text #2
    ID                          : 6
    Format                      : UTF-8
    Codec ID                    : S_TEXT/UTF8
    Codec ID/Info               : UTF-8 Plain Text
    Duration                    : 1 h 24 min
    Bit rate                    : 87 b/s
    Count of elements           : 1331
    Stream size                 : 54.0 KiB (0%)
    Title                       : Español-SRT [CinemaniaHDD]
    Language                    : Spanish
    Default                     : No
    Forced                      : No

    Text #3
    ID                          : 7
    Format                      : UTF-8
    Codec ID                    : S_TEXT/UTF8
    Codec ID/Info               : UTF-8 Plain Text
    Duration                    : 1 h 23 min
    Bit rate                    : 99 b/s
    Count of elements           : 1502
    Stream size                 : 60.2 KiB (0%)
    Title                       : Ingles-SRT [CinemaniaHDD]
    Language                    : English
    Default                     : No
    Forced                      : No

  • Peso: 4.18 GiB

Sinopsis

Descargar El rey de los clones: La caída del Dr. Hwang Woo-suk (2023) NF WEB-DL 1080p Latino. Narra la historia del científico más famoso de Corea, desde su investigación pionera sobre la clonación humana hasta su estrepitosa caída.

Español Latino EAC3 & AC3 5.1 NF – Coreano EAC3 5.1 NF

Ficha técnica

Video trailer de la película

Enlaces de descarga

Rip de Bluray

Descargar El rey de los clones: La caída del Dr. Hwang Woo-suk (2023) NF WEB-DL 1080p Latino




Aportes de DPeliculasHDmega la pass es:dpeliculashdmega.org Aportes de CinemaniaHD la pass es:cinemaniahdd.com Aportes recientes:cinemaniahdd.net
Guardado en : Documental , Netflix

Películas relacionadas

  • La gran exclusiva (2024) NF WEB-DL 1080p Latino

    La gran exclusiva (2024) NF WEB-DL 1080p Latino

    2024
    La gran exclusiva (2024) NF WEB-DL 1080p Latino

    1h 43m 2024

    Descargar La gran exclusiva (2024) NF WEB-DL 1080p Latino. Esta dramatización ficticia basada en hechos...

    Director: Philip Martin

    Género: Drama

    Actores: Theresa Godly

  • RIPLEY (2024) Temporada 1 NF WEB-DL 1080p Latino

    RIPLEY (2024) Temporada 1 NF WEB-DL 1080p Latino

    2024
    RIPLEY (2024) Temporada 1 NF WEB-DL 1080p Latino

    0h 0m 2024

    Descargar RIPLEY (2024) Temporada 1 NF WEB-DL 1080p Latino. Un estafador se adentra en un mundo de riqueza...

    Director: Steven Zaillian

    Género: Drama

    Actores: Johnny Flynn

  • Maleantes (2024)  Temporada 1 NF WEB-DL 1080p Latino

    Maleantes (2024) Temporada 1 NF WEB-DL 1080p Latino

    2024
    Maleantes (2024) Temporada 1 NF WEB-DL 1080p Latino

    0h 0m 2024

    Descargar Maleantes (2024) Temporada 1 NF WEB-DL 1080p Latino. Cuando bandas rivales de Europa se enfrentan...

    Director: Marvin Kren

    Género: Action & Adventure

    Actores: Svenja Jung

  • Fabricante de lágrimas (2024) NF WEB-DL 1080p Latino

    Fabricante de lágrimas (2024) NF WEB-DL 1080p Latino

    2024
    Fabricante de lágrimas (2024) NF WEB-DL 1080p Latino

    1h 43m 2024

    Descargar Fabricante de lágrimas (2024) NF WEB-DL 1080p Latino. Adoptados juntos tras pasar una infancia...

    Director: Alessandro Genovesi

    Género: Drama

    Actores: Sveva Romano Candelletta

descargar El rey de los clones: La caída del Dr. Hwang Woo-suk (2023) NF WEB-DL 1080p Latino WEBDL 1080p gratis, El rey de los clones: La caída del Dr. Hwang Woo-suk (2023) NF WEB-DL 1080p Latino WEBDL mega 1 link, El rey de los clones: La caída del Dr. Hwang Woo-suk (2023) NF WEB-DL 1080p Latino WEBDL pelicula completa, descargar El rey de los clones: La caída del Dr. Hwang Woo-suk (2023) NF WEB-DL 1080p Latino WEBDL gratis en mega.

El rey de los clones: La caída del Dr. Hwang Woo-suk (2023) NF WEB-DL 1080p Latino pelicula full hd, El rey de los clones: La caída del Dr. Hwang Woo-suk (2023) NF WEB-DL 1080p Latino mega latino, El rey de los clones: La caída del Dr. Hwang Woo-suk (2023) NF WEB-DL 1080p Latino 4k latino, El rey de los clones: La caída del Dr. Hwang Woo-suk (2023) NF WEB-DL 1080p Latino pelicula completa, El rey de los clones: La caída del Dr. Hwang Woo-suk (2023) NF WEB-DL 1080p Latino descargar gratis, descargar El rey de los clones: La caída del Dr. Hwang Woo-suk (2023) NF WEB-DL 1080p Latino pelicula latino, El rey de los clones: La caída del Dr. Hwang Woo-suk (2023) NF WEB-DL 1080p Latino 1 link mega, El rey de los clones: La caída del Dr. Hwang Woo-suk (2023) NF WEB-DL 1080p Latino 1 link google drive, El rey de los clones: La caída del Dr. Hwang Woo-suk (2023) NF WEB-DL 1080p Latino hd 1080p latino.
Comentarios 0