×

¿Problemas para descargar con Mozilla, EDGE? Deshabilita la opción "Abrir vinculos en una pestaña nueva" tal como lo muestra ésta imagen.

King Kong (2005) [EXTENDED] REMUX 4K HDR Latino – CMHDD

475 vistas

Información de King Kong (2005) [EXTENDED] REMUX 4K HDR Latino – CMHDD

Datos de la película

  • Calidad: 4K HDR
  • Audio: Español Latino DTS 5.1 BLURAY - Ingles DTS-HD Master 7.1 BLURAY
  • Subtitulos: Español Latino PGS
  • Resolución: 3840x2160p
  • Formato: MKV
  • Codec: H.264
  • Encoder: Dracarys
  • Mediainfo: Clic para Mostrar Datos Ver
  • Format                      : Matroska
    Format version              : Version 4
    File size                   : 76.0 GiB
    Duration                    : 3 h 20 min
    Overall bit rate mode       : Variable
    Overall bit rate            : 54.3 Mb/s
    Movie name                  : King Kong (2005) [EXTENDED] REMUX 4K HDR Latino - CMHDD
    Encoded date                : UTC 2021-03-21 23:25:21
    Writing application         : mkvmerge v51.0.0 ('I Wish') 64-bit
    Writing library             : libebml v1.4.0 + libmatroska v1.6.2
    Cover                       : Yes
    Attachments                 : cover.jpg

    Video
    ID                          : 1
    Format                      : HEVC
    Format/Info                 : High Efficiency Video Coding
    Format profile              : Main 10@L5.1@High
    HDR format                  : SMPTE ST 2086, HDR10 compatible
    Codec ID                    : V_MPEGH/ISO/HEVC
    Duration                    : 3 h 20 min
    Bit rate                    : 46.2 Mb/s
    Width                       : 3 840 pixels
    Height                      : 2 160 pixels
    Display aspect ratio        : 16:9
    Frame rate mode             : Constant
    Frame rate                  : 23.976 (24000/1001) FPS
    Color space                 : YUV
    Chroma subsampling          : 4:2:0 (Type 2)
    Bit depth                   : 10 bits
    Bits/(Pixel*Frame)          : 0.232
    Stream size                 : 64.5 GiB (85%)
    Writing library             : ATEME Titan File 3.7.9 (4.7.9.0)
    Default                     : Yes
    Forced                      : No
    Color range                 : Limited
    Color primaries             : BT.2020
    Transfer characteristics    : PQ
    Matrix coefficients         : BT.2020 non-constant
    Mastering display color pri : Display P3
    Mastering display luminance : min: 0.0050 cd/m2, max: 1000 cd/m2
    Maximum Content Light Level : 1000 cd/m2
    Maximum Frame-Average Light : 96 cd/m2

    Audio #1
    ID                          : 2
    Format                      : DTS
    Format/Info                 : Digital Theater Systems
    Codec ID                    : A_DTS
    Duration                    : 3 h 20 min
    Bit rate mode               : Constant
    Bit rate                    : 768 kb/s
    Channel(s)                  : 6 channels
    Channel layout              : C L R Ls Rs LFE
    Sampling rate               : 48.0 kHz
    Frame rate                  : 93.750 FPS (512 SPF)
    Bit depth                   : 24 bits
    Compression mode            : Lossy
    Stream size                 : 1.07 GiB (1%)
    Language                    : Spanish
    Default                     : Yes
    Forced                      : No

    Audio #2
    ID                          : 3
    Format                      : DTS XLL X
    Format/Info                 : Digital Theater Systems
    Commercial name             : DTS-HD Master Audio
    Codec ID                    : A_DTS
    Duration                    : 3 h 20 min
    Bit rate mode               : Variable
    Bit rate                    : 7 413 kb/s
    Channel(s)                  : 8 channels
    Channel(s)_Original         : Object Based
    ChannelLayout_Original      : Object Based
    Sampling rate               : 48.0 kHz
    Frame rate                  : 93.750 FPS (512 SPF)
    Bit depth                   : 24 bits
    Stream size                 : 10.4 GiB (14%)
    Language                    : English
    Default                     : No
    Forced                      : No

    Text #1
    ID                          : 4
    Format                      : PGS
    Muxing mode                 : zlib
    Codec ID                    : S_HDMV/PGS
    Codec ID/Info               : Picture based subtitle format used on BDs/HD-DVDs
    Duration                    : 3 h 18 min
    Bit rate                    : 15.4 kb/s
    Count of elements           : 2596
    Stream size                 : 22.0 MiB (0%)
    Language                    : Spanish
    Default                     : No
    Forced                      : No

    Text #2
    ID                          : 5
    Format                      : PGS
    Muxing mode                 : zlib
    Codec ID                    : S_HDMV/PGS
    Codec ID/Info               : Picture based subtitle format used on BDs/HD-DVDs
    Duration                    : 3 h 16 min
    Bit rate                    : 434 b/s
    Count of elements           : 80
    Stream size                 : 625 KiB (0%)
    Language                    : Spanish
    Default                     : No
    Forced                      : No

    Menu
    00:00:00.000                : en:Chapter 01
    00:03:01.848                : en:Chapter 02
    00:04:19.842                : en:Chapter 03
    00:06:42.985                : en:Chapter 04
    00:10:28.711                : en:Chapter 05
    00:12:32.251                : en:Chapter 06
    00:14:17.439                : en:Chapter 07
    00:17:39.933                : en:Chapter 08
    00:20:24.890                : en:Chapter 09
    00:24:12.325                : en:Chapter 10
    00:25:54.678                : en:Chapter 11
    00:26:12.404                : en:Chapter 12
    00:27:59.678                : en:Chapter 13
    00:30:28.576                : en:Chapter 14
    00:31:06.489                : en:Chapter 15
    00:33:06.401                : en:Chapter 16
    00:34:13.551                : en:Chapter 17
    00:36:54.921                : en:Chapter 18
    00:39:44.715                : en:Chapter 19
    00:41:06.547                : en:Chapter 20
    00:42:30.756                : en:Chapter 21
    00:43:44.913                : en:Chapter 22
    00:52:19.219                : en:Chapter 23
    00:55:48.970                : en:Chapter 24
    01:02:06.305                : en:Chapter 25
    01:07:31.839                : en:Chapter 26
    01:12:38.520                : en:Chapter 27
    01:14:13.699                : en:Chapter 28
    01:16:57.988                : en:Chapter 29
    01:20:22.526                : en:Chapter 30
    01:22:41.206                : en:Chapter 31
    01:29:19.562                : en:Chapter 32
    01:30:15.618                : en:Chapter 33
    01:32:08.856                : en:Chapter 34
    01:38:54.386                : en:Chapter 35
    01:44:43.151                : en:Chapter 36
    01:46:16.995                : en:Chapter 37
    01:50:01.052                : en:Chapter 38
    02:01:40.292                : en:Chapter 39
    02:09:07.698                : en:Chapter 40
    02:13:18.031                : en:Chapter 41
    02:15:50.517                : en:Chapter 42
    02:21:35.069                : en:Chapter 43
    02:30:15.548                : en:Chapter 44
    02:32:10.746                : en:Chapter 45
    02:34:01.190                : en:Chapter 46
    02:43:13.825                : en:Chapter 47
    02:47:49.601                : en:Chapter 48
    02:52:22.915                : en:Chapter 49
    02:54:04.308                : en:Chapter 50
    02:56:23.030                : en:Chapter 51
    03:03:56.525                : en:Chapter 52
    03:10:35.090                : en:Chapter 53

  • Peso: 76.0 GiB

Sinopsis

La suerte de Ann Darrow cambia cuando conoce a Carl Denham, un empresario que lucha para abrirse camino en el mundo del espectáculo. A ellos se une Jack Driscoll, un autor de teatro neoyorquino. Los tres emprenden un viaje que los llevará a una remota isla, donde Denham tiene previsto dirigir una película. Allí descubren un ser increíble, un gorila gigante, King Kong, que habita en una frondosa selva donde criaturas prehistóricas han vivido ocultas durante millones de años. Denham, con un apetito insaciable de grandeza, enseguida ve la fama que puede reportarle la captura del gorila y su exhibición en Nueva York.

Ficha técnica

Video trailer de la película

Enlaces de descarga

Rip de Bluray

Descargar King Kong (2005) [EXTENDED] REMUX 4K HDR Latino – CMHDD


Aportes de DPeliculasHDmega la pass es:dpeliculashdmega.org Aportes de CinemaniaHD la pass es:cinemaniahdd.com
Guardado en : Acción , Aventura , Drama

Películas relacionadas

descargar King Kong (2005) [EXTENDED] REMUX 4K HDR Latino – CMHDD 4K HDR 1080p gratis, King Kong (2005) [EXTENDED] REMUX 4K HDR Latino – CMHDD 4K HDR mega 1 link, King Kong (2005) [EXTENDED] REMUX 4K HDR Latino – CMHDD 4K HDR pelicula completa, descargar King Kong (2005) [EXTENDED] REMUX 4K HDR Latino – CMHDD 4K HDR gratis en mega.

King Kong (2005) [EXTENDED] REMUX 4K HDR Latino – CMHDD pelicula full hd, King Kong (2005) [EXTENDED] REMUX 4K HDR Latino – CMHDD mega latino, King Kong (2005) [EXTENDED] REMUX 4K HDR Latino – CMHDD 4k latino, King Kong (2005) [EXTENDED] REMUX 4K HDR Latino – CMHDD pelicula completa, King Kong (2005) [EXTENDED] REMUX 4K HDR Latino – CMHDD descargar gratis, descargar King Kong (2005) [EXTENDED] REMUX 4K HDR Latino – CMHDD pelicula latino, King Kong (2005) [EXTENDED] REMUX 4K HDR Latino – CMHDD 1 link mega, King Kong (2005) [EXTENDED] REMUX 4K HDR Latino – CMHDD 1 link google drive, King Kong (2005) [EXTENDED] REMUX 4K HDR Latino – CMHDD hd 1080p latino.
Comentarios 0