×

¿Problemas para descargar con Mozilla, EDGE? Deshabilita la opción "Abrir vinculos en una pestaña nueva" tal como lo muestra ésta imagen.

killing salazar (2016) 1080p Sub Latino

2.001 vistas

Información de killing salazar (2016) 1080p Sub Latino

cartels 36314 poster

Datos de la película

  • Calidad: 1080p
  • Audio: Ingles AC3 5.1 BLURAY
  • Subtitulos: Español Latino SRT
  • Resolución: 1920x1080p
  • Formato: MKV
  • Codec: H.264
  • Encoder: Dpelis1
  • Mediainfo: Clic para Mostrar Datos Ver
  • Video
    ID                                       : 1
    Format                                   : AVC
    Format/Info                              : Advanced Video Codec
    Format profile                           : High@L4.1
    Format settings, CABAC                   : Yes
    Format settings, RefFrames               : 4 frames
    Codec ID                                 : V_MPEG4/ISO/AVC
    Duration                                 : 1 h 40 min
    Bit rate                                 : 2 844 kb/s
    Nominal bit rate                         : 3 000 kb/s
    Width                                    : 1 920 pixels
    Height                                   : 1 080 pixels
    Display aspect ratio                     : 16:9
    Frame rate mode                          : Constant
    Frame rate                               : 23.976 (24000/1001) FPS
    Color space                              : YUV
    Chroma subsampling                       : 4:2:0
    Bit depth                                : 8 bits
    Scan type                                : Progressive
    Bits/(Pixel*Frame)                       : 0.057
    Stream size                              : 1.99 GiB (86%)
    Writing library                          : x264 core 148 r2708 86b7198
    Encoding settings                        : cabac=1 / ref=4 / deblock=1:0:0 / analyse=0x3:0x113 / me=umh / subme=8 / psy=1 / psy_rd=1.00:0.00 / mixed_ref=1 / me_range=16 / chroma_me=1 / trellis=1 / 8x8dct=1 / cqm=0 / deadzone=21,11 / fast_pskip=1 / chroma_qp_offset=-2 / threads=34 / lookahead_threads=5 / sliced_threads=0 / nr=0 / decimate=1 / interlaced=0 / bluray_compat=0 / constrained_intra=0 / bframes=3 / b_pyramid=2 / b_adapt=2 / b_bias=0 / direct=3 / weightb=1 / open_gop=0 / weightp=2 / keyint=240 / keyint_min=24 / scenecut=40 / intra_refresh=0 / rc_lookahead=50 / rc=abr / mbtree=1 / bitrate=3000 / ratetol=1.0 / qcomp=0.60 / qpmin=0 / qpmax=69 / qpstep=4 / vbv_maxrate=62500 / vbv_bufsize=78125 / nal_hrd=none / filler=0 / ip_ratio=1.40 / aq=1:1.00
    Default                                  : Yes
    Forced                                   : No
    Color range                              : Limited
    Color primaries                          : BT.709
    Transfer characteristics                 : BT.709
    Matrix coefficients                      : BT.709

    Audio
    ID                                       : 2
    Format                                   : AC-3
    Format/Info                              : Audio Coding 3
    Format settings, Endianness              : Big
    Codec ID                                 : A_AC3
    Duration                                 : 1 h 40 min
    Bit rate mode                            : Constant
    Bit rate                                 : 384 kb/s
    Channel(s)                               : 6 channels
    Channel positions                        : Front: L C R, Side: L R, LFE
    Sampling rate                            : 48.0 kHz
    Frame rate                               : 31.250 FPS (1536 SPF)
    Bit depth                                : 16 bits
    Compression mode                         : Lossy
    Delay relative to video                  : -5 ms
    Stream size                              : 276 MiB (12%)
    Title                                    : Surround
    Language                                 : English
    Service kind                             : Complete Main
    Default                                  : Yes
    Forced                                   : No

    Menu
    00:00:00.000                             : :00:00:00.000
    00:05:28.411                             : :00:05:28.411
    00:13:14.794                             : :00:13:14.627
    00:18:37.283                             : :00:18:37.283
    00:23:25.029                             : :00:23:25.029
    00:30:11.893                             : :00:30:11.893
    00:36:22.055                             : :00:36:22.055
    00:43:33.653                             : :00:43:33.653
    00:48:04.882                             : :00:48:04.882
    00:56:10.200                             : :00:56:10.158
    01:00:17.614                             : :01:00:17.614
    01:06:06.254                             : :01:06:06.254
    01:12:13.704                             : :01:12:13.704
    01:18:15.065                             : :01:18:15.024
    01:25:55.359                             : :01:25:55.359
    01:30:44.064                             : :01:30:44.064

  • Peso: 2,30 GB

Sinopsis

Descargar gratis killing salazar (2016) 1080p Sub Latino. Un equipo de élite de agentes de la DEA estan asigndos para proteger a un peligroso narcotraficante y refugiarse en un hotel de lujo mientras esperan la extracción. Pronto se encuentran en el centro de una embscada cuando los antiguos compañeros del narcotraficante lanzan un asalto explosivo contra el hotel.

Ficha técnica

Video trailer de la película

Enlaces de descarga

Rip de Bluray

Descargar killing salazar (2016) 1080p Sub Latino




Aportes de DPeliculasHDmega la pass es:dpeliculashdmega.org Aportes de CinemaniaHD la pass es:cinemaniahdd.com
Guardado en : Acción

Películas relacionadas

descargar killing salazar (2016) 1080p Sub Latino 1080p 1080p gratis, killing salazar (2016) 1080p Sub Latino 1080p mega 1 link, killing salazar (2016) 1080p Sub Latino 1080p pelicula completa, descargar killing salazar (2016) 1080p Sub Latino 1080p gratis en mega.

killing salazar (2016) 1080p Sub Latino pelicula full hd, killing salazar (2016) 1080p Sub Latino mega latino, killing salazar (2016) 1080p Sub Latino 4k latino, killing salazar (2016) 1080p Sub Latino pelicula completa, killing salazar (2016) 1080p Sub Latino descargar gratis, descargar killing salazar (2016) 1080p Sub Latino pelicula latino, killing salazar (2016) 1080p Sub Latino 1 link mega, killing salazar (2016) 1080p Sub Latino 1 link google drive, killing salazar (2016) 1080p Sub Latino hd 1080p latino.
Comentarios 6
  • brian - 25 noviembre, 2017

    Hola como andas? tenes subtitulos que esten sincronizados? por que estos andan mal y el de sub divx que vi tambien. saludos

    • dpelis - 26 noviembre, 2017

      hola. son los unicos que encontramos en subdix

    • Brian - 27 noviembre, 2017

      Hola y la subiran con latino? ya que como no hay subtitulos. saludos

      • dpelis - 30 noviembre, 2017

        no sabemos si saldra latino

  • Juan - 22 septiembre, 2017

    No trae latino porque mienten? cada vez peor esta pagina

    • dpelis - 22 septiembre, 2017

      el titulo esta unico mal. la descripcion dice audio ingles. la mediainfo dice solo ingles con subtitulos