×

¿Problemas para descargar con Mozilla, EDGE? Deshabilita la opción "Abrir vinculos en una pestaña nueva" tal como lo muestra ésta imagen.

Killer Klowns from Outer Space (1988) WEB-DL 1080p Latino – CMHDD

200 vistas

Información de Killer Klowns from Outer Space (1988) WEB-DL 1080p Latino – CMHDD

Datos de la película

  • Calidad: 1080p
  • Audio: Español Latino AC3 2.0 WEB-DL - Ingles AC3 2.0 WEB-DL
  • Subtitulos: Español Latino SRT- FORZADOS SRT
  • Resolución: 19201040p
  • Formato: MKV
  • Codec: H.264
  • Encoder: Dracarys
  • Mediainfo: Clic para Mostrar Datos Ver
  • Format                      : Matroska
    Format version              : Version 4
    File size                   : 8.30 GiB
    Duration                    : 1 h 26 min
    Overall bit rate            : 13.8 Mb/s
    Movie name                  : Killer Klowns from Outer Space (1988) WEB-DL 1080p Latino - CMHDD
    Encoded date                : UTC 2024-01-14 21:25:50
    Writing application         : mkvmerge v47.0.0 ('Black Flag') 64-bit
    Writing library             : libebml v1.3.10 + libmatroska v1.5.2

    Video
    ID                          : 1
    Format                      : AVC
    Format/Info                 : Advanced Video Codec
    Format profile              : High@L4
    Format settings             : CABAC / 4 Ref Frames
    Format settings, CABAC      : Yes
    Format settings, Reference  : 4 frames
    Codec ID                    : V_MPEG4/ISO/AVC
    Duration                    : 1 h 26 min
    Bit rate                    : 13.3 Mb/s
    Width                       : 1 920 pixels
    Height                      : 1 040 pixels
    Display aspect ratio        : 1.85:1
    Frame rate mode             : Constant
    Frame rate                  : 23.976 (24000/1001) FPS
    Color space                 : YUV
    Chroma subsampling          : 4:2:0
    Bit depth                   : 8 bits
    Scan type                   : Progressive
    Bits/(Pixel*Frame)          : 0.279
    Stream size                 : 8.03 GiB (97%)
    Language                    : Spanish
    Default                     : Yes
    Forced                      : Yes
    Color range                 : Limited
    Color primaries             : BT.709
    Transfer characteristics    : BT.709
    Matrix coefficients         : BT.709

    Audio #1
    ID                          : 2
    Format                      : E-AC-3
    Format/Info                 : Enhanced AC-3
    Commercial name             : Dolby Digital Plus
    Codec ID                    : A_EAC3
    Duration                    : 1 h 26 min
    Bit rate mode               : Constant
    Bit rate                    : 224 kb/s
    Channel(s)                  : 2 channels
    Channel layout              : L R
    Sampling rate               : 48.0 kHz
    Frame rate                  : 31.250 FPS (1536 SPF)
    Compression mode            : Lossy
    Stream size                 : 138 MiB (2%)
    Language                    : Spanish
    Service kind                : Complete Main
    Default                     : Yes
    Forced                      : No

    Audio #2
    ID                          : 3
    Format                      : E-AC-3
    Format/Info                 : Enhanced AC-3
    Commercial name             : Dolby Digital Plus
    Codec ID                    : A_EAC3
    Duration                    : 1 h 26 min
    Bit rate mode               : Constant
    Bit rate                    : 224 kb/s
    Channel(s)                  : 2 channels
    Channel layout              : L R
    Sampling rate               : 48.0 kHz
    Frame rate                  : 31.250 FPS (1536 SPF)
    Compression mode            : Lossy
    Stream size                 : 138 MiB (2%)
    Language                    : English
    Service kind                : Complete Main
    Default                     : No
    Forced                      : No

    Text #1
    ID                          : 4
    Format                      : UTF-8
    Codec ID                    : S_TEXT/UTF8
    Codec ID/Info               : UTF-8 Plain Text
    Duration                    : 47 min 44 s
    Bit rate                    : 0 b/s
    Frame rate                  : 0.002 FPS
    Count of elements           : 7
    Stream size                 : 110 Bytes (0%)
    Title                       : Forzado
    Language                    : Spanish
    Default                     : Yes
    Forced                      : Yes

    Text #2
    ID                          : 5
    Format                      : UTF-8
    Codec ID                    : S_TEXT/UTF8
    Codec ID/Info               : UTF-8 Plain Text
    Duration                    : 1 h 25 min
    Bit rate                    : 50 b/s
    Frame rate                  : 0.201 FPS
    Count of elements           : 1028
    Stream size                 : 31.8 KiB (0%)
    Language                    : Spanish
    Default                     : No
    Forced                      : No

     

  • Peso: 8.30 GiB

Sinopsis

Deb y Mike ven caer un meteorito en el bosque. Cuando se acercan a investigar descubren que se trata de una carpa de circo llena de payasos asesinos. Después de huir de ellos por los pelos, acuden a la comisaría donde chocan con la incredulidad de Kirk, un viejo policía antipático. Sin embargo, ante su insistencia, consiguen la ayuda de Dave, un amigo de la infancia de Deb, que les ayuda en este surrealista caso. Mientras, la población sufre los hilarantes ataques de los payasos…

Ficha técnica

Video trailer de la película

Enlaces de descarga

Rip de Bluray

Descargar Killer Klowns from Outer Space (1988) WEB-DL 1080p Latino – CMHDD




Aportes de DPeliculasHDmega la pass es:dpeliculashdmega.org Aportes de CinemaniaHD la pass es:cinemaniahdd.com Aportes recientes:cinemaniahdd.net
Guardado en : Ciencia ficción , Comedia , Terror

Películas relacionadas

descargar Killer Klowns from Outer Space (1988) WEB-DL 1080p Latino – CMHDD 1080p 1080p gratis, Killer Klowns from Outer Space (1988) WEB-DL 1080p Latino – CMHDD 1080p mega 1 link, Killer Klowns from Outer Space (1988) WEB-DL 1080p Latino – CMHDD 1080p pelicula completa, descargar Killer Klowns from Outer Space (1988) WEB-DL 1080p Latino – CMHDD 1080p gratis en mega.

Killer Klowns from Outer Space (1988) WEB-DL 1080p Latino – CMHDD pelicula full hd, Killer Klowns from Outer Space (1988) WEB-DL 1080p Latino – CMHDD mega latino, Killer Klowns from Outer Space (1988) WEB-DL 1080p Latino – CMHDD 4k latino, Killer Klowns from Outer Space (1988) WEB-DL 1080p Latino – CMHDD pelicula completa, Killer Klowns from Outer Space (1988) WEB-DL 1080p Latino – CMHDD descargar gratis, descargar Killer Klowns from Outer Space (1988) WEB-DL 1080p Latino – CMHDD pelicula latino, Killer Klowns from Outer Space (1988) WEB-DL 1080p Latino – CMHDD 1 link mega, Killer Klowns from Outer Space (1988) WEB-DL 1080p Latino – CMHDD 1 link google drive, Killer Klowns from Outer Space (1988) WEB-DL 1080p Latino – CMHDD hd 1080p latino.
Comentarios 0