×

¿Problemas para descargar con Mozilla, EDGE? Deshabilita la opción "Abrir vinculos en una pestaña nueva" tal como lo muestra ésta imagen.

Kill Switch (2017) REMUX 1080p Latino

694 vistas

Información de Kill Switch (2017) REMUX 1080p Latino

Datos de la película

  • Calidad: Full 1080p
  • Audio: Español Latino AC3 2.0 DVD - Ingles DTS 5.1 BLURAY
  • Subtitulos: Español Latino SRT- FORZADOS SRT
  • Resolución: 1920x1080p
  • Formato: MKV
  • Codec: H.264
  • Encoder: Melkor
  • Mediainfo: Clic para Mostrar Datos Ver
  • Kill Switch (2017) REMUX 1080p Latino.mkv
    Format                      : Matroska
    Format version              : Version 4
    File size                   : 23.1 GiB
    Duration                    : 1 h 31 min
    Overall bit rate mode       : Variable
    Overall bit rate            : 36.2 Mb/s
    Movie name                  : Kill Switch (2017) CinemaniaHDD.Net
    Encoded date                : UTC 2020-03-29 18:21:12
    Writing application         : mkvmerge v42.0.0 ('Overtime') 64-bit
    Writing library             : libebml v1.3.10 + libmatroska v1.5.2
    Attachments                 : CINEMANIAHD.png

    Video
    ID                          : 1
    Format                      : AVC
    Format/Info                 : Advanced Video Codec
    Format profile              : High@L4.1
    Format settings             : CABAC / 4 Ref Frames
    Format settings, CABAC      : Yes
    Format settings, ReFrames   : 4 frames
    Codec ID                    : V_MPEG4/ISO/AVC
    Duration                    : 1 h 31 min
    Bit rate mode               : Variable
    Bit rate                    : 32.7 Mb/s
    Maximum bit rate            : 36.0 Mb/s
    Width                       : 1 920 pixels
    Height                      : 1 080 pixels
    Display aspect ratio        : 16:9
    Frame rate mode             : Constant
    Frame rate                  : 23.976 (24000/1001) FPS
    Color space                 : YUV
    Chroma subsampling          : 4:2:0
    Bit depth                   : 8 bits
    Scan type                   : Progressive
    Bits/(Pixel*Frame)          : 0.659
    Stream size                 : 20.9 GiB (91%)
    Title                       : REMUX 1080p [CinemaniaHDD]
    Default                     : Yes
    Forced                      : Yes

    Audio #1
    ID                          : 2
    Format                      : AC-3
    Format/Info                 : Audio Coding 3
    Commercial name             : Dolby Digital
    Codec ID                    : A_AC3
    Duration                    : 1 h 31 min
    Bit rate mode               : Constant
    Bit rate                    : 256 kb/s
    Channel(s)                  : 2 channels
    Channel layout              : L R
    Sampling rate               : 48.0 kHz
    Frame rate                  : 31.250 FPS (1536 SPF)
    Bit depth                   : 16 bits
    Compression mode            : Lossy
    Stream size                 : 167 MiB (1%)
    Title                       : Español Latino [CinemaniaHDD]
    Language                    : Spanish
    Service kind                : Complete Main
    Default                     : Yes
    Forced                      : Yes

    Audio #2
    ID                          : 3
    Format                      : DTS XLL
    Format/Info                 : Digital Theater Systems
    Commercial name             : DTS-HD Master Audio
    Codec ID                    : A_DTS
    Duration                    : 1 h 31 min
    Bit rate mode               : Variable
    Bit rate                    : 3 151 kb/s
    Channel(s)                  : 6 channels
    Channel layout              : C L R Ls Rs LFE
    Sampling rate               : 48.0 kHz
    Frame rate                  : 93.750 FPS (512 SPF)
    Bit depth                   : 24 bits
    Compression mode            : Lossless
    Stream size                 : 2.01 GiB (9%)
    Title                       : Ingles [CinemaniaHDD]
    Language                    : English
    Default                     : No
    Forced                      : No

    Text #1
    ID                          : 4
    Format                      : UTF-8
    Codec ID                    : S_TEXT/UTF8
    Codec ID/Info               : UTF-8 Plain Text
    Duration                    : 1 h 18 min
    Bit rate                    : 2 b/s
    Count of elements           : 69
    Stream size                 : 1.64 KiB (0%)
    Title                       : Forzados-SRT [CinemaniaHDD]
    Language                    : Spanish
    Default                     : Yes
    Forced                      : Yes

    Text #2
    ID                          : 5
    Format                      : UTF-8
    Codec ID                    : S_TEXT/UTF8
    Codec ID/Info               : UTF-8 Plain Text
    Duration                    : 1 h 28 min
    Bit rate                    : 48 b/s
    Count of elements           : 942
    Stream size                 : 31.3 KiB (0%)
    Title                       : Español-SRT [CinemaniaHDD]
    Language                    : Spanish
    Default                     : No
    Forced                      : No

    Menu
    00:00:00.000                : en:Chapter 01
    00:09:55.970                : en:Chapter 02
    00:20:01.158                : en:Chapter 03
    00:29:22.552                : en:Chapter 04
    00:38:48.909                : en:Chapter 05
    00:49:10.906                : en:Chapter 06
    01:00:18.698                : en:Chapter 07
    01:10:05.743                : en:Chapter 08
    01:21:01.439                : en:Chapter 09
    01:27:22.403                : en:Chapter 10

  • Peso: 23.1 GiB

Sinopsis

Descargar Kill Switch (2017) REMUX 1080p Latino. Autodestrucción es una versión de un mundo futuro, como si fuera un videojuego, y que a través de una serie de experimentos consiguen energía ilimitada de los universos paralelos. Todo parecer ir bien cuando algo del experimento sale mal. Para salvar a su familia del tremendo desastre provocado, el piloto Will Porterdeberá conseguir que la caja Redivider llegue a una torre y así salvar a la humanidad.

Ficha técnica

Video trailer de la película

Enlaces de descarga

Rip de Bluray

Descargar Kill Switch (2017) REMUX 1080p Latino




Aportes de DPeliculasHDmega la pass es:dpeliculashdmega.org Aportes de CinemaniaHD la pass es:cinemaniahdd.com
Guardado en : Acción , Ciencia ficción , Remux , Suspenso

Películas relacionadas

descargar Kill Switch (2017) REMUX 1080p Latino Full 1080p 1080p gratis, Kill Switch (2017) REMUX 1080p Latino Full 1080p mega 1 link, Kill Switch (2017) REMUX 1080p Latino Full 1080p pelicula completa, descargar Kill Switch (2017) REMUX 1080p Latino Full 1080p gratis en mega.

Kill Switch (2017) REMUX 1080p Latino pelicula full hd, Kill Switch (2017) REMUX 1080p Latino mega latino, Kill Switch (2017) REMUX 1080p Latino 4k latino, Kill Switch (2017) REMUX 1080p Latino pelicula completa, Kill Switch (2017) REMUX 1080p Latino descargar gratis, descargar Kill Switch (2017) REMUX 1080p Latino pelicula latino, Kill Switch (2017) REMUX 1080p Latino 1 link mega, Kill Switch (2017) REMUX 1080p Latino 1 link google drive, Kill Switch (2017) REMUX 1080p Latino hd 1080p latino.
Comentarios 0