×

¿Problemas para descargar con Mozilla, EDGE? Deshabilita la opción "Abrir vinculos en una pestaña nueva" tal como lo muestra ésta imagen.

Kill Mode (2020) PLACEBO Full HD 1080p Latino

244 vistas

Información de Kill Mode (2020) PLACEBO Full HD 1080p Latino

Datos de la película

  • Calidad: Full 1080p
  • Audio: Español Latino AC3 2.0 WEB-DL - Ingles DTS 5.1 BLURAY
  • Subtitulos: Español Latino PGS - Ingles PGS
  • Resolución: 1920x1080p
  • Formato: MKV
  • Codec: H.264
  • Encoder: Melkor
  • Mediainfo: Clic para Mostrar Datos Ver
  • Kill Mode (2020) PLACEBO 1080p Latino.mkv
    Format                      : Matroska
    Format version              : Version 4
    File size                   : 12.9 GiB
    Duration                    : 1 h 37 min
    Overall bit rate            : 18.9 Mb/s
    Movie name                  : Kill Mode (2020) CinemaniaHDD.Net
    Encoded date                : UTC 2021-08-14 05:13:05
    Writing application         : mkvmerge v56.1.0 ('My Friend') 64-bit
    Writing library             : libebml v1.4.2 + libmatroska v1.6.4
    Attachments                 : CINEMANIAHD.png

    Video
    ID                          : 1
    Format                      : AVC
    Format/Info                 : Advanced Video Codec
    Format profile              : High@L4.1
    Format settings             : CABAC / 4 Ref Frames
    Format settings, CABAC      : Yes
    Format settings, Reference  : 4 frames
    Codec ID                    : V_MPEG4/ISO/AVC
    Duration                    : 1 h 37 min
    Bit rate                    : 17.1 Mb/s
    Width                       : 1 920 pixels
    Height                      : 1 080 pixels
    Display aspect ratio        : 16:9
    Frame rate mode             : Constant
    Frame rate                  : 24.000 FPS
    Color space                 : YUV
    Chroma subsampling          : 4:2:0
    Bit depth                   : 8 bits
    Scan type                   : Progressive
    Bits/(Pixel*Frame)          : 0.343
    Stream size                 : 11.7 GiB (91%)
    Title                       : Full HD1080p [CinemaniaHDD]
    Writing library             : x264 core 163 r3059 b684ebe0
    Encoding settings           : cabac=1 / ref=4 / deblock=1:0:0 / analyse=0x3:0x133 / me=tesa / subme=11 / psy=1 / psy_rd=1.00:0.00 / mixed_ref=1 / me_range=24 / chroma_me=1 / trellis=2 / 8x8dct=1 / cqm=0 / deadzone=21,11 / fast_pskip=0 / chroma_qp_offset=-2 / threads=24 / lookahead_threads=6 / sliced_threads=0 / nr=0 / decimate=1 / interlaced=0 / bluray_compat=0 / constrained_intra=0 / bframes=16 / b_pyramid=2 / b_adapt=2 / b_bias=0 / direct=3 / weightb=1 / open_gop=0 / weightp=2 / keyint=240 / keyint_min=24 / scenecut=40 / intra_refresh=0 / rc_lookahead=60 / rc=crf / mbtree=1 / crf=19.0 / qcomp=0.60 / qpmin=0 / qpmax=69 / qpstep=4 / vbv_maxrate=62500 / vbv_bufsize=78125 / crf_max=0.0 / nal_hrd=none / filler=0 / ip_ratio=1.40 / aq=1:1.00
    Default                     : Yes
    Forced                      : Yes
    Color range                 : Limited
    Color primaries             : BT.709
    Transfer characteristics    : BT.709
    Matrix coefficients         : BT.709

    Audio #1
    ID                          : 2
    Format                      : AC-3
    Format/Info                 : Audio Coding 3
    Commercial name             : Dolby Digital
    Codec ID                    : A_AC3
    Duration                    : 1 h 37 min
    Bit rate mode               : Constant
    Bit rate                    : 256 kb/s
    Channel(s)                  : 2 channels
    Channel layout              : L R
    Sampling rate               : 48.0 kHz
    Frame rate                  : 31.250 FPS (1536 SPF)
    Compression mode            : Lossy
    Stream size                 : 179 MiB (1%)
    Title                       : Español Latino [CinemaniaHDD]
    Language                    : Spanish
    Service kind                : Complete Main
    Default                     : Yes
    Forced                      : Yes

    Audio #2
    ID                          : 3
    Format                      : DTS
    Format/Info                 : Digital Theater Systems
    Codec ID                    : A_DTS
    Duration                    : 1 h 37 min
    Bit rate mode               : Constant
    Bit rate                    : 1 509 kb/s
    Channel(s)                  : 6 channels
    Channel layout              : C L R Ls Rs LFE
    Sampling rate               : 48.0 kHz
    Frame rate                  : 93.750 FPS (512 SPF)
    Bit depth                   : 24 bits
    Compression mode            : Lossy
    Stream size                 : 1.03 GiB (8%)
    Title                       : Ingles [CinemaniaHDD]
    Language                    : English
    Default                     : No
    Forced                      : No

    Text #1
    ID                          : 4
    Format                      : PGS
    Muxing mode                 : zlib
    Codec ID                    : S_HDMV/PGS
    Codec ID/Info               : Picture based subtitle format used on BDs/HD-DVDs
    Duration                    : 1 h 31 min
    Bit rate                    : 15.9 kb/s
    Count of elements           : 996
    Stream size                 : 10.5 MiB (0%)
    Title                       : Español-PGS [CinemaniaHDD]
    Language                    : Spanish
    Default                     : No
    Forced                      : No

    Text #2
    ID                          : 5
    Format                      : PGS
    Muxing mode                 : zlib
    Codec ID                    : S_HDMV/PGS
    Codec ID/Info               : Picture based subtitle format used on BDs/HD-DVDs
    Duration                    : 1 h 37 min
    Bit rate                    : 17.4 kb/s
    Count of elements           : 1293
    Stream size                 : 12.1 MiB (0%)
    Title                       : Ingles-PGS [CinemaniaHDD]
    Language                    : English
    Default                     : No
    Forced                      : No

    Text #3
    ID                          : 6
    Format                      : UTF-8
    Codec ID                    : S_TEXT/UTF8
    Codec ID/Info               : UTF-8 Plain Text
    Duration                    : 3 s 583 ms
    Bit rate                    : 42 b/s
    Count of elements           : 1
    Stream size                 : 19.0 Bytes (0%)
    Title                       : Forzados-SRT [CinemaniaHDD]
    Language                    : Spanish
    Default                     : Yes
    Forced                      : Yes

    Text #4
    ID                          : 7
    Format                      : UTF-8
    Codec ID                    : S_TEXT/UTF8
    Codec ID/Info               : UTF-8 Plain Text
    Duration                    : 1 h 31 min
    Bit rate                    : 30 b/s
    Count of elements           : 731
    Stream size                 : 20.8 KiB (0%)
    Title                       : Español-SRT [CinemaniaHDD]
    Language                    : Spanish
    Default                     : No
    Forced                      : No

    Menu
    00:00:00.000                : :Chapter 01
    00:10:00.000                : :Chapter 02
    00:20:00.000                : :Chapter 03
    00:30:00.000                : :Chapter 04
    00:40:00.000                : :Chapter 05
    00:50:00.000                : :Chapter 06
    01:00:00.625                : :Chapter 07
    01:10:00.625                : :Chapter 08
    01:20:00.000                : :Chapter 09
    01:30:00.000                : :Chapter 10
    01:37:40.917                : :Chapter 11

  • Peso: 12.9 GiB

Sinopsis

Descargar Kill Mode (2020) PLACEBO Full HD 1080p Latino. Es el año 2027, ocho años después del primer brote de The Sickness, un virus altamente contagioso, adaptativo y letal. El mundo ahora está dirigido por una corporación farmacéutica llamada The Company, que distribuye un tratamiento para el virus pero cobra un alto precio por él, lo que pone a la mayoría de las personas en un estado de pobreza y dependencia.

Ficha técnica

Video trailer de la película

Enlaces de descarga

Rip de Bluray

Descargar Kill Mode (2020) PLACEBO Full HD 1080p Latino




Aportes de DPeliculasHDmega la pass es:dpeliculashdmega.org Aportes de CinemaniaHD la pass es:cinemaniahdd.com

Películas relacionadas

  • Zola (2020) PLACEBO Full HD 1080p Latino

    Zola (2020) PLACEBO Full HD 1080p Latino

    2020
    Zola (2020) PLACEBO Full HD 1080p Latino

    1h 26m 2020

    Descargar Zola (2020) PLACEBO Full HD 1080p Latino. Una camarera accede a acompañar a una bailarina...

    Director: Sheri Davani

    Género: Comedia

    Actores: Ts Madison

  • DC Liga De Supermascotas (2022) HD 1080p Latino

    DC Liga De Supermascotas (2022) HD 1080p Latino

    2022
    DC Liga De Supermascotas (2022) HD 1080p Latino

    1h 45m 2022

    Descargar DC Liga De Supermascotas (2022) HD 1080p Latino. Krypto el Superperro y Superman son amigos...

    Director: Sam Levine

    Género: Acción

    Actores: Yvette Nicole Brown

  • Tremors (1990) REMUX 4K HDR Latino – CMHDD

    Tremors (1990) REMUX 4K HDR Latino – CMHDD

    1990
    Tremors (1990) REMUX 4K HDR Latino – CMHDD

    1h 35m 1990

    En Perfección, un pequeño pueblo al borde del desierto de Nevada, algo parece suceder debajo de la...

    Director: Susan Bierbaum

    Género: Acción

    Actores: Victor Wong

descargar Kill Mode (2020) PLACEBO Full HD 1080p Latino Full 1080p 1080p gratis, Kill Mode (2020) PLACEBO Full HD 1080p Latino Full 1080p mega 1 link, Kill Mode (2020) PLACEBO Full HD 1080p Latino Full 1080p pelicula completa, descargar Kill Mode (2020) PLACEBO Full HD 1080p Latino Full 1080p gratis en mega.

Kill Mode (2020) PLACEBO Full HD 1080p Latino pelicula full hd, Kill Mode (2020) PLACEBO Full HD 1080p Latino mega latino, Kill Mode (2020) PLACEBO Full HD 1080p Latino 4k latino, Kill Mode (2020) PLACEBO Full HD 1080p Latino pelicula completa, Kill Mode (2020) PLACEBO Full HD 1080p Latino descargar gratis, descargar Kill Mode (2020) PLACEBO Full HD 1080p Latino pelicula latino, Kill Mode (2020) PLACEBO Full HD 1080p Latino 1 link mega, Kill Mode (2020) PLACEBO Full HD 1080p Latino 1 link google drive, Kill Mode (2020) PLACEBO Full HD 1080p Latino hd 1080p latino.
Comentarios 0