×

¿Problemas para descargar con Mozilla, EDGE? Deshabilita la opción "Abrir vinculos en una pestaña nueva" tal como lo muestra ésta imagen.

Kill Chain: The Cyber War on America’s Elections (2020) AMZN WEB-DL 1080p Latino

248 vistas

Información de Kill Chain: The Cyber War on America’s Elections (2020) AMZN WEB-DL 1080p Latino

Datos de la película

  • Calidad: WEBDL
  • Audio: Español Latino AC3 2.0 WEB-DL - Ingles AC3 5.1 WEB-DL
  • Subtitulos: Español Latino SRT- FORZADOS SRT
  • Resolución: 1920x1080
  • Formato: MKV
  • Codec: H.264
  • Encoder: cinemaniahdd
  • Mediainfo: Clic para Mostrar Datos Ver
  • Kill Chain, La Ciberguerra En Las Elecciones De los EUA (2020) AMZN WEB-DL 1080p Latino [CNMNHDD].mkv
    Format                      : Matroska
    Format version              : Version 4
    File size                   : 5.11 GiB
    Duration                    : 1 h 31 min
    Overall bit rate            : 8 009 kb/s
    Movie name                  : Kill Chain, La Ciberguerra En Las Elecciones De EEUU - CinemaniaHDD.Net
    Encoded date                : UTC 2020-07-26 19:46:49
    Writing application         : mkvmerge v46.0.0 ('No Deeper Escape') 64-bit
    Writing library             : libebml v1.3.10 + libmatroska v1.5.2

    Video
    ID                          : 1
    Format                      : AVC
    Format/Info                 : Advanced Video Codec
    Format profile              : High@L4
    Format settings             : CABAC / 4 Ref Frames
    Format settings, CABAC      : Yes
    Format settings, Reference  : 4 frames
    Codec ID                    : V_MPEG4/ISO/AVC
    Duration                    : 1 h 31 min
    Bit rate mode               : Constant
    Bit rate                    : 7 526 kb/s
    Nominal bit rate            : 10 000 kb/s
    Width                       : 1 920 pixels
    Height                      : 1 080 pixels
    Display aspect ratio        : 16:9
    Frame rate mode             : Constant
    Frame rate                  : 23.976 (24000/1001) FPS
    Color space                 : YUV
    Chroma subsampling          : 4:2:0
    Bit depth                   : 8 bits
    Scan type                   : Progressive
    Bits/(Pixel*Frame)          : 0.151
    Stream size                 : 4.80 GiB (94%)
    Title                       : CinemaniaHDD
    Default                     : Yes
    Forced                      : No
    Color range                 : Limited
    Color primaries             : BT.709
    Transfer characteristics    : BT.709
    Matrix coefficients         : BT.709

    Audio #1
    ID                          : 2
    Format                      : AC-3
    Format/Info                 : Audio Coding 3
    Commercial name             : Dolby Digital
    Codec ID                    : A_AC3
    Duration                    : 1 h 31 min
    Bit rate mode               : Constant
    Bit rate                    : 256 kb/s
    Channel(s)                  : 2 channels
    Channel layout              : L R
    Sampling rate               : 48.0 kHz
    Frame rate                  : 31.250 FPS (1536 SPF)
    Compression mode            : Lossy
    Delay relative to video     : -40 ms
    Stream size                 : 167 MiB (3%)
    Title                       : Español latino [CinemaniaHDD]
    Language                    : Spanish
    Service kind                : Complete Main
    Default                     : Yes
    Forced                      : No

    Audio #2
    ID                          : 3
    Format                      : E-AC-3
    Format/Info                 : Enhanced AC-3
    Commercial name             : Dolby Digital Plus
    Codec ID                    : A_EAC3
    Duration                    : 1 h 31 min
    Bit rate mode               : Constant
    Bit rate                    : 224 kb/s
    Channel(s)                  : 2 channels
    Channel layout              : L R
    Sampling rate               : 48.0 kHz
    Frame rate                  : 31.250 FPS (1536 SPF)
    Compression mode            : Lossy
    Delay relative to video     : -40 ms
    Stream size                 : 146 MiB (3%)
    Title                       : Inglés [CinemaniaHDD]
    Language                    : English
    Service kind                : Complete Main
    Default                     : No
    Forced                      : No

    Text #1
    ID                          : 4
    Format                      : UTF-8
    Codec ID                    : S_TEXT/UTF8
    Codec ID/Info               : UTF-8 Plain Text
    Duration                    : 1 h 23 min
    Bit rate                    : 1 b/s
    Count of elements           : 37
    Stream size                 : 1.03 KiB (0%)
    Title                       : Forzados [CinemaniaHDD]
    Language                    : Spanish
    Default                     : Yes
    Forced                      : Yes

    Text #2
    ID                          : 5
    Format                      : UTF-8
    Codec ID                    : S_TEXT/UTF8
    Codec ID/Info               : UTF-8 Plain Text
    Duration                    : 1 h 28 min
    Bit rate                    : 97 b/s
    Count of elements           : 1552
    Stream size                 : 63.0 KiB (0%)
    Title                       : Español latino [CinemaniaHDD]
    Language                    : Spanish
    Default                     : No
    Forced                      : No

    Text #3
    ID                          : 6
    Format                      : UTF-8
    Codec ID                    : S_TEXT/UTF8
    Codec ID/Info               : UTF-8 Plain Text
    Duration                    : 1 h 30 min
    Bit rate                    : 93 b/s
    Count of elements           : 1611
    Stream size                 : 62.0 KiB (0%)
    Title                       : Inglés [CinemaniaHDD]
    Language                    : English
    Default                     : No
    Forced                      : No

     

  • Peso: 5.11 GiB

Sinopsis

Antes de las elecciones presidenciales de 2020, Kill Chain: The Cyber War on America’s Elections profundiza en las debilidades de la tecnología electoral de hoy, investigando las sorprendentes vulnerabilidades en los sistemas de votación de Estados Unidos y los riesgos alarmantes que representan para nuestra democracia.

Ficha técnica

Video trailer de la película

Enlaces de descarga

Rip de Bluray

Descargar Kill Chain: The Cyber War on America’s Elections (2020) AMZN WEB-DL 1080p Latino




Aportes de DPeliculasHDmega la pass es:dpeliculashdmega.org Aportes de CinemaniaHD la pass es:cinemaniahdd.com
Guardado en : Documental , HBO

Películas relacionadas

descargar Kill Chain: The Cyber War on America’s Elections (2020) AMZN WEB-DL 1080p Latino WEBDL 1080p gratis, Kill Chain: The Cyber War on America’s Elections (2020) AMZN WEB-DL 1080p Latino WEBDL mega 1 link, Kill Chain: The Cyber War on America’s Elections (2020) AMZN WEB-DL 1080p Latino WEBDL pelicula completa, descargar Kill Chain: The Cyber War on America’s Elections (2020) AMZN WEB-DL 1080p Latino WEBDL gratis en mega.

Kill Chain: The Cyber War on America’s Elections (2020) AMZN WEB-DL 1080p Latino pelicula full hd, Kill Chain: The Cyber War on America’s Elections (2020) AMZN WEB-DL 1080p Latino mega latino, Kill Chain: The Cyber War on America’s Elections (2020) AMZN WEB-DL 1080p Latino 4k latino, Kill Chain: The Cyber War on America’s Elections (2020) AMZN WEB-DL 1080p Latino pelicula completa, Kill Chain: The Cyber War on America’s Elections (2020) AMZN WEB-DL 1080p Latino descargar gratis, descargar Kill Chain: The Cyber War on America’s Elections (2020) AMZN WEB-DL 1080p Latino pelicula latino, Kill Chain: The Cyber War on America’s Elections (2020) AMZN WEB-DL 1080p Latino 1 link mega, Kill Chain: The Cyber War on America’s Elections (2020) AMZN WEB-DL 1080p Latino 1 link google drive, Kill Chain: The Cyber War on America’s Elections (2020) AMZN WEB-DL 1080p Latino hd 1080p latino.
Comentarios 0