×

¿Problemas para descargar con Mozilla, EDGE? Deshabilita la opción "Abrir vinculos en una pestaña nueva" tal como lo muestra ésta imagen.

Kill Bill: Volumen 2 (2004) 1080p Latino

1.137 vistas

Información de Kill Bill: Volumen 2 (2004) 1080p Latino

5TdXCLGuZWuObl5EDBnbFSGPkvW

Datos de la película

  • Calidad: 1080p
  • Audio: Español Latino AC3 5.1 BLURAY - Ingles AC3 5.1 BLURAY
  • Subtitulos: Español Latino SRT- FORZADOS SRT
  • Resolución: 1920x802
  • Formato: MKV
  • Codec: H.264
  • Encoder: cinemaniahdd
  • Mediainfo: Clic para Mostrar Datos Ver
  • Kill Bill - Volumen 2 (2004) 1080p Latino.mkv
    Format                      : Matroska
    Format version              : Version 4
    File size                   : 4.38 GiB
    Duration                    : 2 h 16 min
    Overall bit rate            : 4 575 kb/s
    Movie name                  : Kill Bill: Volumen 2 (2004) - CinemaniaHDD.Net
    Encoded date                : UTC 2019-09-10 20:06:47
    Writing application         : mkvmerge v35.0.0 ('All The Love In The World') 64-bit
    Writing library             : libebml v1.3.9 + libmatroska v1.5.2

    Video
    ID                          : 1
    Format                      : AVC
    Format/Info                 : Advanced Video Codec
    Format profile              : Main@L4
    Format settings             : CABAC / 4 Ref Frames
    Format settings, CABAC      : Yes
    Format settings, ReFrames   : 4 frames
    Codec ID                    : V_MPEG4/ISO/AVC
    Duration                    : 2 h 16 min
    Bit rate                    : 3 500 kb/s
    Width                       : 1 920 pixels
    Height                      : 802 pixels
    Display aspect ratio        : 2.40:1
    Frame rate mode             : Constant
    Frame rate                  : 23.976 (24000/1001) FPS
    Color space                 : YUV
    Chroma subsampling          : 4:2:0
    Bit depth                   : 8 bits
    Scan type                   : Progressive
    Bits/(Pixel*Frame)          : 0.095
    Stream size                 : 3.33 GiB (76%)
    Title                       : CinemaniaHDD
    Writing library             : x264 core 157 r2935 545de2f
    Encoding settings           : cabac=1 / ref=3 / deblock=1:0:0 / analyse=0x1:0x111 / me=hex / subme=7 / psy=1 / psy_rd=1.00:0.00 / mixed_ref=1 / me_range=16 / chroma_me=1 / trellis=1 / 8x8dct=0 / cqm=0 / deadzone=21,11 / fast_pskip=1 / chroma_qp_offset=-2 / threads=25 / lookahead_threads=4 / sliced_threads=0 / nr=0 / decimate=1 / interlaced=0 / bluray_compat=0 / constrained_intra=0 / bframes=3 / b_pyramid=2 / b_adapt=1 / b_bias=0 / direct=1 / weightb=1 / open_gop=0 / weightp=2 / keyint=240 / keyint_min=24 / scenecut=40 / intra_refresh=0 / rc_lookahead=40 / rc=abr / mbtree=1 / bitrate=3500 / ratetol=1.0 / qcomp=0.60 / qpmin=0 / qpmax=69 / qpstep=4 / vbv_maxrate=20000 / vbv_bufsize=25000 / nal_hrd=none / filler=0 / ip_ratio=1.40 / aq=1:1.00
    Default                     : Yes
    Forced                      : No
    Color range                 : Limited
    Color primaries             : BT.709
    Transfer characteristics    : BT.709
    Matrix coefficients         : BT.709

    Audio #1
    ID                          : 2
    Format                      : AC-3
    Format/Info                 : Audio Coding 3
    Commercial name             : Dolby Digital
    Codec ID                    : A_AC3
    Duration                    : 2 h 16 min
    Bit rate mode               : Constant
    Bit rate                    : 640 kb/s
    Channel(s)                  : 6 channels
    Channel layout              : L R C LFE Ls Rs
    Sampling rate               : 48.0 kHz
    Frame rate                  : 31.250 FPS (1536 SPF)
    Bit depth                   : 16 bits
    Compression mode            : Lossy
    Delay relative to video     : -10 ms
    Stream size                 : 627 MiB (14%)
    Title                       : Español latino [CinemaniaHDD]
    Language                    : Spanish
    Service kind                : Complete Main
    Default                     : Yes
    Forced                      : No

    Audio #2
    ID                          : 3
    Format                      : AC-3
    Format/Info                 : Audio Coding 3
    Commercial name             : Dolby Digital
    Codec ID                    : A_AC3
    Duration                    : 2 h 16 min
    Bit rate mode               : Constant
    Bit rate                    : 448 kb/s
    Channel(s)                  : 6 channels
    Channel layout              : L R C LFE Ls Rs
    Sampling rate               : 48.0 kHz
    Frame rate                  : 31.250 FPS (1536 SPF)
    Bit depth                   : 16 bits
    Compression mode            : Lossy
    Delay relative to video     : -10 ms
    Stream size                 : 439 MiB (10%)
    Title                       : Inglés [CinemaniaHDD]
    Language                    : English
    Service kind                : Complete Main
    Default                     : No
    Forced                      : No

    Text #1
    ID                          : 4
    Format                      : UTF-8
    Codec ID                    : S_TEXT/UTF8
    Codec ID/Info               : UTF-8 Plain Text
    Duration                    : 2 h 2 min
    Bit rate                    : 0 b/s
    Count of elements           : 15
    Stream size                 : 312 Bytes (0%)
    Title                       : Forzados [CinemaniaHDD]
    Language                    : Spanish
    Default                     : Yes
    Forced                      : Yes

    Text #2
    ID                          : 5
    Format                      : UTF-8
    Codec ID                    : S_TEXT/UTF8
    Codec ID/Info               : UTF-8 Plain Text
    Duration                    : 2 h 16 min
    Bit rate                    : 37 b/s
    Count of elements           : 1094
    Stream size                 : 38.0 KiB (0%)
    Title                       : Español latino [CinemaniaHDD]
    Language                    : Spanish
    Default                     : No
    Forced                      : No

    Menu
    00:00:00.000                : en:Chapter 01
    00:02:01.121                : en:Chapter 02
    00:05:28.411                : en:Chapter 03
    00:14:50.806                : en:Chapter 04
    00:18:08.420                : en:Chapter 05
    00:22:52.913                : en:Chapter 06
    00:30:55.603                : en:Chapter 07
    00:39:14.185                : en:Chapter 08
    00:57:33.783                : en:Chapter 09
    01:03:06.908                : en:Chapter 10
    01:14:42.060                : en:Chapter 11
    01:21:13.952                : en:Chapter 12
    01:27:48.346                : en:Chapter 13
    01:32:15.154                : en:Chapter 14
    01:40:08.043                : en:Chapter 15
    01:49:35.986                : en:Chapter 16
    01:55:12.572                : en:Chapter 17
    02:02:08.904                : en:Chapter 18
    02:04:03.185                : en:Chapter 19
    02:16:56.833                : en:Chapter 20

  • Peso: 4.38 GiB

Sinopsis

Descargar Kill Bill: Volumen 2 (2004) 1080p Latino, Tras eliminar a algunos de los miembros de la banda que intentó asesinarla el día de su boda, «Mamba Negra» prosigue su venganza e intenta acabar con el resto de la banda, en especial con su antiguo jefe, Bill, que la dio por muerta dejándola en coma.

Ficha técnica

Video trailer de la película

Enlaces de descarga

Rip de Bluray

Descargar Kill Bill: Volumen 2 (2004) 1080p Latino




Aportes de DPeliculasHDmega la pass es:dpeliculashdmega.org Aportes de CinemaniaHD la pass es:cinemaniahdd.com
Guardado en : Acción , Crimen , HD 1080p , Suspenso

Películas relacionadas

  • Wire Room (2022) HD 1080p Latino

    Wire Room (2022) HD 1080p Latino

    2022
    Wire Room (2022) HD 1080p Latino

    1h 37m 2022

    Descargar Wire Room (2022) HD 1080p Latino. Mientras está de servicio en la sala de cables, un agente...

    Director: Matt Eskandari

    Género: Acción

    Actores: Texas Battle

  • Wire Room (2022) PLACEBO Full HD 1080p Latino

    Wire Room (2022) PLACEBO Full HD 1080p Latino

    2022
    Wire Room (2022) PLACEBO Full HD 1080p Latino

    1h 37m 2022

    Descargar Wire Room (2022) PLACEBO Full HD 1080p Latino. Mientras está de servicio en la sala de cables,...

    Director: Matt Eskandari

    Género: Acción

    Actores: Texas Battle

  • Wire Room (2022) REMUX 1080p Latino

    Wire Room (2022) REMUX 1080p Latino

    2022
    Wire Room (2022) REMUX 1080p Latino

    1h 37m 2022

    Descargar Wire Room (2022) REMUX 1080p Latino. Mientras está de servicio en la sala de cables, un agente...

    Director: Matt Eskandari

    Género: Acción

    Actores: Texas Battle

  • Alarido (2022) HD 1080p Latino

    Alarido (2022) HD 1080p Latino

    2022
    Alarido (2022) HD 1080p Latino

    1h 29m 2022

    Descargar Alarido (2022) HD 1080p Latino. Una joven madre soltera es cautiva junto con sus dos hijos...

    Director: D.J. Caruso

    Género: HD 1080p

    Actores: Vincent Gallo

  • Alarido (2022) PLACEBO Full HD 1080p Latino

    Alarido (2022) PLACEBO Full HD 1080p Latino

    2022
    Alarido (2022) PLACEBO Full HD 1080p Latino

    1h 29m 2022

    Descargar Alarido (2022) PLACEBO Full HD 1080p Latino. Una joven madre soltera es cautiva junto con sus...

    Director: D.J. Caruso

    Género: FULL 1080p Plateadas

    Actores: Vincent Gallo

descargar Kill Bill: Volumen 2 (2004) 1080p Latino 1080p 1080p gratis, Kill Bill: Volumen 2 (2004) 1080p Latino 1080p mega 1 link, Kill Bill: Volumen 2 (2004) 1080p Latino 1080p pelicula completa, descargar Kill Bill: Volumen 2 (2004) 1080p Latino 1080p gratis en mega.

Kill Bill: Volumen 2 (2004) 1080p Latino pelicula full hd, Kill Bill: Volumen 2 (2004) 1080p Latino mega latino, Kill Bill: Volumen 2 (2004) 1080p Latino 4k latino, Kill Bill: Volumen 2 (2004) 1080p Latino pelicula completa, Kill Bill: Volumen 2 (2004) 1080p Latino descargar gratis, descargar Kill Bill: Volumen 2 (2004) 1080p Latino pelicula latino, Kill Bill: Volumen 2 (2004) 1080p Latino 1 link mega, Kill Bill: Volumen 2 (2004) 1080p Latino 1 link google drive, Kill Bill: Volumen 2 (2004) 1080p Latino hd 1080p latino.
Comentarios 0