×

¿Problemas para descargar con Mozilla, EDGE? Deshabilita la opción "Abrir vinculos en una pestaña nueva" tal como lo muestra ésta imagen.

Kill Bill: Volumen 1 (2003) [Multi-Doblaje] PLACEBO 1080p Latino

2.061 vistas

Información de Kill Bill: Volumen 1 (2003) [Multi-Doblaje] PLACEBO 1080p Latino

Datos de la película

  • Calidad: Full 1080p
  • Audio: Se especifica abajo de la Sinopsis
  • Subtitulos: Español Latino SRT- FORZADOS SRT
  • Resolución: 1920x1080
  • Formato: MKV
  • Codec: H.264
  • Encoder: cinemaniahdd
  • Mediainfo: Clic para Mostrar Datos Ver
  • Kill Bill - Volumen 1 (2003) [Multi-Doblaje] PLACEBO 1080p Latino.mkv
    Format                      : Matroska
    Format version              : Version 4
    File size                   : 9.70 GiB
    Duration                    : 1 h 50 min
    Overall bit rate            : 12.5 Mb/s
    Movie name                  : Kill Bill: Volumen 1 (2003) - CinemaniaHDD.Net
    Encoded date                : UTC 2019-09-09 15:41:06
    Writing application         : mkvmerge v35.0.0 ('All The Love In The World') 64-bit
    Writing library             : libebml v1.3.9 + libmatroska v1.5.2

    Video
    ID                          : 1
    Format                      : AVC
    Format/Info                 : Advanced Video Codec
    Format profile              : High@L4.1
    Format settings             : CABAC / 4 Ref Frames
    Format settings, CABAC      : Yes
    Format settings, ReFrames   : 4 frames
    Codec ID                    : V_MPEG4/ISO/AVC
    Duration                    : 1 h 50 min
    Bit rate                    : 7 221 kb/s
    Width                       : 1 920 pixels
    Height                      : 1 080 pixels
    Display aspect ratio        : 16:9
    Frame rate mode             : Constant
    Frame rate                  : 23.976 (24000/1001) FPS
    Color space                 : YUV
    Chroma subsampling          : 4:2:0
    Bit depth                   : 8 bits
    Scan type                   : Progressive
    Bits/(Pixel*Frame)          : 0.145
    Stream size                 : 5.59 GiB (58%)
    Title                       : CinemaniaHDD
    Writing library             : x264 core 157 r2935 545de2f
    Encoding settings           : cabac=1 / ref=4 / deblock=1:0:0 / analyse=0x3:0x133 / me=tesa / subme=11 / psy=1 / psy_rd=1.00:0.00 / mixed_ref=1 / me_range=24 / chroma_me=1 / trellis=2 / 8x8dct=1 / cqm=0 / deadzone=21,11 / fast_pskip=0 / chroma_qp_offset=-2 / threads=34 / lookahead_threads=8 / sliced_threads=0 / nr=0 / decimate=1 / interlaced=0 / bluray_compat=0 / constrained_intra=0 / bframes=16 / b_pyramid=2 / b_adapt=2 / b_bias=0 / direct=3 / weightb=1 / open_gop=0 / weightp=2 / keyint=240 / keyint_min=24 / scenecut=40 / intra_refresh=0 / rc_lookahead=60 / rc=crf / mbtree=1 / crf=20.0 / qcomp=0.60 / qpmin=0 / qpmax=69 / qpstep=4 / vbv_maxrate=62500 / vbv_bufsize=78125 / crf_max=0.0 / nal_hrd=none / filler=0 / ip_ratio=1.40 / aq=1:1.00
    Default                     : Yes
    Forced                      : No
    Color range                 : Limited
    Color primaries             : BT.709
    Transfer characteristics    : BT.709
    Matrix coefficients         : BT.709

    Audio #1
    ID                          : 2
    Format                      : AC-3
    Format/Info                 : Audio Coding 3
    Commercial name             : Dolby Digital
    Codec ID                    : A_AC3
    Duration                    : 1 h 50 min
    Bit rate mode               : Constant
    Bit rate                    : 256 kb/s
    Channel(s)                  : 2 channels
    Channel layout              : L R
    Sampling rate               : 48.0 kHz
    Frame rate                  : 31.250 FPS (1536 SPF)
    Bit depth                   : 16 bits
    Compression mode            : Lossy
    Delay relative to video     : -5 ms
    Stream size                 : 203 MiB (2%)
    Title                       : Doblaje 1 - MIRAMAX [CinemaniaHDD]
    Language                    : Spanish
    Service kind                : Complete Main
    Default                     : Yes
    Forced                      : No

    Audio #2
    ID                          : 3
    Format                      : AC-3
    Format/Info                 : Audio Coding 3
    Commercial name             : Dolby Digital
    Codec ID                    : A_AC3
    Duration                    : 1 h 50 min
    Bit rate mode               : Constant
    Bit rate                    : 448 kb/s
    Channel(s)                  : 6 channels
    Channel layout              : L R C LFE Ls Rs
    Sampling rate               : 48.0 kHz
    Frame rate                  : 31.250 FPS (1536 SPF)
    Bit depth                   : 16 bits
    Compression mode            : Lossy
    Delay relative to video     : -5 ms
    Stream size                 : 355 MiB (4%)
    Title                       : Doblaje 2 - Auditel [CinemaniaHDD]
    Language                    : Spanish
    Service kind                : Complete Main
    Default                     : No
    Forced                      : No

    Audio #3
    ID                          : 4
    Format                      : PCM
    Format settings             : Little / Signed
    Codec ID                    : A_MS/ACM / 00000001-0000-0010-8000-00AA00389B71
    Duration                    : 1 h 50 min
    Bit rate mode               : Constant
    Bit rate                    : 4 608 kb/s / 4 608 kb/s
    Channel(s)                  : 6 channels
    Channel layout              : L R C LFE Ls Rs
    Sampling rate               : 48.0 kHz
    Frame rate                  : 30.000 FPS (1600 SPF)
    Bit depth                   : 16 bits
    Stream size                 : 3.56 GiB (37%)
    Title                       : Ingles [CinemaniaHDD]
    Language                    : English
    Default                     : No
    Forced                      : No

    Text #1
    ID                          : 5
    Format                      : UTF-8
    Codec ID                    : S_TEXT/UTF8
    Codec ID/Info               : UTF-8 Plain Text
    Duration                    : 1 h 27 min
    Bit rate                    : 7 b/s
    Count of elements           : 146
    Stream size                 : 4.83 KiB (0%)
    Title                       : Doblaje 1 - MIRAMAX [CinemaniaHDD]
    Language                    : Spanish
    Default                     : Yes
    Forced                      : Yes

    Text #2
    ID                          : 6
    Format                      : UTF-8
    Codec ID                    : S_TEXT/UTF8
    Codec ID/Info               : UTF-8 Plain Text
    Duration                    : 1 h 43 min
    Bit rate                    : 23 b/s
    Count of elements           : 467
    Stream size                 : 17.7 KiB (0%)
    Title                       : Doblaje 1 - MIRAMAX [CinemaniaHDD]
    Language                    : Spanish
    Default                     : No
    Forced                      : No

    Text #3
    ID                          : 7
    Format                      : PGS
    Muxing mode                 : zlib
    Codec ID                    : S_HDMV/PGS
    Codec ID/Info               : Picture based subtitle format used on BDs/HD-DVDs
    Duration                    : 1 h 42 min
    Bit rate                    : 12.4 kb/s
    Count of elements           : 1228
    Stream size                 : 9.12 MiB (0%)
    Title                       : Doblaje 2 - Auditel [CinemaniaHDD]
    Default                     : No
    Forced                      : No

    Text #4
    ID                          : 8
    Format                      : PGS
    Muxing mode                 : zlib
    Codec ID                    : S_HDMV/PGS
    Codec ID/Info               : Picture based subtitle format used on BDs/HD-DVDs
    Duration                    : 1 h 42 min
    Bit rate                    : 14.7 kb/s
    Count of elements           : 1738
    Stream size                 : 10.8 MiB (0%)
    Title                       : Ingles [CinemaniaHDD]
    Language                    : English
    Default                     : No
    Forced                      : No

    Menu
    00:00:00.000                : en:Chapter 01
    00:02:27.856                : en:Chapter 02
    00:05:08.141                : en:Chapter 03
    00:09:50.214                : en:Chapter 04
    00:16:08.592                : en:Chapter 05
    00:19:52.024                : en:Chapter 06
    00:25:12.135                : en:Chapter 07
    00:32:19.062                : en:Chapter 08
    00:35:57.655                : en:Chapter 09
    00:45:02.408                : en:Chapter 10
    00:50:30.861                : en:Chapter 11
    00:58:39.724                : en:Chapter 12
    01:04:35.121                : en:Chapter 13
    01:13:12.221                : en:Chapter 14
    01:21:39.436                : en:Chapter 15
    01:30:05.733                : en:Chapter 16
    01:38:37.077                : en:Chapter 17
    01:41:46.100                : en:Chapter 18
    01:43:19.401                : en:Chapter 19
    01:50:42.636                : en:Chapter 20

     

  • Peso: 9.70 GiB

Sinopsis

Descargar Kill Bill: Volumen 1 (2003) [Multi-Doblaje] PLACEBO 1080p Latino. Uma Thurman es una asesina que, el día de su boda, es atacada por los miembros de la banda de su jefe, Bill (David Carradine). Logra sobrevivir al ataque, aunque queda en coma. Cinco años después despierta con un trozo de metal en la cabeza y un gran deseo de venganza en su corazón.

Español Latino 2.0 Estudio-Miramax – Español Latino 5.1 Estudio-Auditel – Ingles 5.1 Bluray

Ficha técnica

Video trailer de la película

Enlaces de descarga

Rip de Bluray

Descargar Kill Bill: Volumen 1 (2003) [Multi-Doblaje] PLACEBO 1080p Latino




Aportes de DPeliculasHDmega la pass es:dpeliculashdmega.org Aportes de CinemaniaHD la pass es:cinemaniahdd.com

Películas relacionadas

  • Tren Bala (2022) WEB-DL 4K UHD HDR Latino

    Tren Bala (2022) WEB-DL 4K UHD HDR Latino

    2022
    Tren Bala (2022) WEB-DL 4K UHD HDR Latino

    2h 7m 2022

    Descargar Tren Bala (2022) WEB-DL 4K UHD HDR Latino. El desafortunado asesino "Catarina" está decidido...

    Director: Paul Barry

    Género: 4K HDR

    Actores: Zooey Miyoshi

  • Tren Bala (2022) AMZN WEB-DL 1080p Latino

    Tren Bala (2022) AMZN WEB-DL 1080p Latino

    2022
    Tren Bala (2022) AMZN WEB-DL 1080p Latino

    2h 7m 2022

    Descargar Tren Bala (2022) AMZN WEB-DL 1080p Latino. Cinco asesinos a sueldo se encuentran a bordo de...

    Director: Paul Barry

    Género: Acción

    Actores: Zooey Miyoshi

  • Athena (2022) NF WEB-DL 1080p Latino

    Athena (2022) NF WEB-DL 1080p Latino

    2022
    Athena (2022) NF WEB-DL 1080p Latino

    1h 37m 2022

    Descargar Athena (2022) NF WEB-DL 1080p Latino. Horas después de la trágica muerte de su hermano menor...

    Director: Romain Gavras

    Género: Acción

    Actores: Tarek Haddaji

  • Lou (2022) NF WEB-DL 1080p Latino

    Lou (2022) NF WEB-DL 1080p Latino

    2022
    Lou (2022) NF WEB-DL 1080p Latino

    1h 47m 2022

    Descargar Lou (2022) NF WEB-DL 1080p Latino. Una mujer misteriosa y solitaria lucha contra las inclemencias...

    Director: Anna Foerster

    Género: Acción

    Actores: Toby Levins

descargar Kill Bill: Volumen 1 (2003) [Multi-Doblaje] PLACEBO 1080p Latino Full 1080p 1080p gratis, Kill Bill: Volumen 1 (2003) [Multi-Doblaje] PLACEBO 1080p Latino Full 1080p mega 1 link, Kill Bill: Volumen 1 (2003) [Multi-Doblaje] PLACEBO 1080p Latino Full 1080p pelicula completa, descargar Kill Bill: Volumen 1 (2003) [Multi-Doblaje] PLACEBO 1080p Latino Full 1080p gratis en mega.

Kill Bill: Volumen 1 (2003) [Multi-Doblaje] PLACEBO 1080p Latino pelicula full hd, Kill Bill: Volumen 1 (2003) [Multi-Doblaje] PLACEBO 1080p Latino mega latino, Kill Bill: Volumen 1 (2003) [Multi-Doblaje] PLACEBO 1080p Latino 4k latino, Kill Bill: Volumen 1 (2003) [Multi-Doblaje] PLACEBO 1080p Latino pelicula completa, Kill Bill: Volumen 1 (2003) [Multi-Doblaje] PLACEBO 1080p Latino descargar gratis, descargar Kill Bill: Volumen 1 (2003) [Multi-Doblaje] PLACEBO 1080p Latino pelicula latino, Kill Bill: Volumen 1 (2003) [Multi-Doblaje] PLACEBO 1080p Latino 1 link mega, Kill Bill: Volumen 1 (2003) [Multi-Doblaje] PLACEBO 1080p Latino 1 link google drive, Kill Bill: Volumen 1 (2003) [Multi-Doblaje] PLACEBO 1080p Latino hd 1080p latino.
Comentarios 0