×

¿Problemas para descargar con Mozilla, EDGE? Deshabilita la opción "Abrir vinculos en una pestaña nueva" tal como lo muestra ésta imagen.

Kill Bill: Volumen 1 (2003) [Open Matte] WEB-DL 1080p Multi-Doblaje Latino

1.663 vistas

Información de Kill Bill: Volumen 1 (2003) [Open Matte] WEB-DL 1080p Multi-Doblaje Latino

Datos de la película

  • Calidad: 1080p
  • Audio: Se especifica abajo de la Sinopsis
  • Subtitulos: Español Latino SRT- FORZADOS SRT
  • Resolución: 1920x1080
  • Formato: MKV
  • Codec: H.264
  • Encoder: cinemaniahdd
  • Mediainfo: Clic para Mostrar Datos Ver
  • Kill Bill. Vol. 1 (2003) [OpenMatte] WEB-DL 1080p Multi-Doblaje Latino [CNMNHDD].mkv Format                      : Matroska Format version              : Version 4 File size                   : 8.63 GiB Duration                    : 1 h 50 min Overall bit rate mode       : Variable Overall bit rate            : 11.2 Mb/s Movie name                  : Kill Bill. Vol. 1 (2003) - OpenMatte (Multi-Doblaje) [1080p] - CinemaniaHDD.Net Encoded date                : UTC 2023-01-17 01:58:06 Writing application         : mkvmerge v56.1.0 ('My Friend') 64-bit Writing library             : libebml v1.4.2 + libmatroska v1.6.4 Video ID                          : 1 Format                      : AVC Format/Info                 : Advanced Video Codec Format profile              : High@L4 Format settings             : CABAC / 4 Ref Frames Format settings, CABAC      : Yes Format settings, Reference  : 4 frames Codec ID                    : V_MPEG4/ISO/AVC Duration                    : 1 h 50 min Bit rate mode               : Variable Bit rate                    : 9 678 kb/s Maximum bit rate            : 15.0 Mb/s Width                       : 1 920 pixels Height                      : 1 080 pixels Display aspect ratio        : 16:9 Frame rate mode             : Constant Frame rate                  : 23.976 (24000/1001) FPS Color space                 : YUV Chroma subsampling          : 4:2:0 Bit depth                   : 8 bits Scan type                   : Progressive Bits/(Pixel*Frame)          : 0.195 Stream size                 : 7.49 GiB (87%) Title                       : CinemaniaHDD Default                     : Yes Forced                      : No Color range                 : Limited Color primaries             : BT.709 Transfer characteristics    : BT.709 Matrix coefficients         : BT.709 Audio #1 ID                          : 2 Format                      : AC-3 Format/Info                 : Audio Coding 3 Commercial name             : Dolby Digital Codec ID                    : A_AC3 Duration                    : 1 h 50 min Bit rate mode               : Constant Bit rate                    : 384 kb/s Channel(s)                  : 2 channels Channel layout              : L R Sampling rate               : 48.0 kHz Frame rate                  : 31.250 FPS (1536 SPF) Compression mode            : Lossy Stream size                 : 304 MiB (3%) Title                       : Doblaje 1 - MIRAMAX [CinemaniaHDD] Language                    : Spanish Service kind                : Complete Main Default                     : Yes Forced                      : No Audio #2 ID                          : 3 Format                      : AC-3 Format/Info                 : Audio Coding 3 Commercial name             : Dolby Digital Codec ID                    : A_AC3 Duration                    : 1 h 50 min Bit rate mode               : Constant Bit rate                    : 448 kb/s Channel(s)                  : 6 channels Channel layout              : L R C LFE Ls Rs Sampling rate               : 48.0 kHz Frame rate                  : 31.250 FPS (1536 SPF) Compression mode            : Lossy Stream size                 : 355 MiB (4%) Title                       : Doblaje 2 - Auditel [CinemaniaHDD] Language                    : Spanish Service kind                : Complete Main Default                     : No Forced                      : No Audio #3 ID                          : 4 Format                      : E-AC-3 Format/Info                 : Enhanced AC-3 Commercial name             : Dolby Digital Plus Codec ID                    : A_EAC3 Duration                    : 1 h 50 min Bit rate mode               : Constant Bit rate                    : 640 kb/s Channel(s)                  : 6 channels Channel layout              : L R C LFE Ls Rs Sampling rate               : 48.0 kHz Frame rate                  : 31.250 FPS (1536 SPF) Compression mode            : Lossy Stream size                 : 507 MiB (6%) Title                       : Inglés [CinemaniaHDD] Language                    : English Service kind                : Complete Main Default                     : No Forced                      : No Text #1 ID                          : 5 Format                      : UTF-8 Codec ID                    : S_TEXT/UTF8 Codec ID/Info               : UTF-8 Plain Text Duration                    : 1 h 27 min Bit rate                    : 7 b/s Count of elements           : 146 Stream size                 : 4.83 KiB (0%) Title                       : Forzados [CinemaniaHDD] Language                    : Spanish Default                     : Yes Forced                      : Yes Text #2 ID                          : 6 Format                      : UTF-8 Codec ID                    : S_TEXT/UTF8 Codec ID/Info               : UTF-8 Plain Text Duration                    : 1 h 43 min Bit rate                    : 23 b/s Count of elements           : 467 Stream size                 : 17.7 KiB (0%) Title                       : Español latino [CinemaniaHDD] Language                    : Spanish Default                     : No Forced                      : No Text #3 ID                          : 7 Format                      : UTF-8 Codec ID                    : S_TEXT/UTF8 Codec ID/Info               : UTF-8 Plain Text Duration                    : 1 h 41 min Bit rate                    : 31 b/s Count of elements           : 801 Stream size                 : 23.5 KiB (0%) Title                       : Inglés [CinemaniaHDD] Language                    : English Default                     : No Forced                      : No Menu 00:00:00.000                : Chapter 01 00:02:26.612                : Chapter 02 00:05:06.897                : Chapter 03 00:09:48.970                : Chapter 04 00:16:07.348                : Chapter 05 00:19:50.780                : Chapter 06 00:25:10.891                : Chapter 07 00:32:17.818                : Chapter 08 00:35:56.411                : Chapter 09 00:45:01.164                : Chapter 10 00:50:29.617                : Chapter 11 00:58:38.480                : Chapter 12 01:04:33.877                : Chapter 13 01:13:10.977                : Chapter 14 01:21:38.192                : Chapter 15 01:30:04.489                : Chapter 16 01:38:35.833                : Chapter 17 01:41:44.856                : Chapter 18 01:43:18.157                : Chapter 19 01:50:41.392                : Chapter 20    
  • Peso: 8.63 GiB

Sinopsis

Descargar Kill Bill: Volumen 1 (2003) [OpenMatte] WEB-DL 1080p Multi-Doblaje Latino. Uma Thurman es una asesina que, el día de su boda, es atacada por los miembros de la banda de su jefe, Bill (David Carradine). Logra sobrevivir al ataque, aunque queda en coma. Cinco años después despierta con un trozo de metal en la cabeza y un gran deseo de venganza en su corazón.

Español Latino 2.0 Estudio-Miramax – Español Latino 5.1 Estudio-Auditel – Ingles 5.1 WEB-DL

Ficha técnica

Video trailer de la película

Enlaces de descarga

Rip de Bluray

Descargar Kill Bill: Volumen 1 (2003) [Open Matte] WEB-DL 1080p Multi-Doblaje Latino




Aportes de DPeliculasHDmega la pass es:dpeliculashdmega.org Aportes de CinemaniaHD la pass es:cinemaniahdd.com
Guardado en : Acción , Crimen , OPEN MATTE

Películas relacionadas

descargar Kill Bill: Volumen 1 (2003) [Open Matte] WEB-DL 1080p Multi-Doblaje Latino 1080p 1080p gratis, Kill Bill: Volumen 1 (2003) [Open Matte] WEB-DL 1080p Multi-Doblaje Latino 1080p mega 1 link, Kill Bill: Volumen 1 (2003) [Open Matte] WEB-DL 1080p Multi-Doblaje Latino 1080p pelicula completa, descargar Kill Bill: Volumen 1 (2003) [Open Matte] WEB-DL 1080p Multi-Doblaje Latino 1080p gratis en mega.

Kill Bill: Volumen 1 (2003) [Open Matte] WEB-DL 1080p Multi-Doblaje Latino pelicula full hd, Kill Bill: Volumen 1 (2003) [Open Matte] WEB-DL 1080p Multi-Doblaje Latino mega latino, Kill Bill: Volumen 1 (2003) [Open Matte] WEB-DL 1080p Multi-Doblaje Latino 4k latino, Kill Bill: Volumen 1 (2003) [Open Matte] WEB-DL 1080p Multi-Doblaje Latino pelicula completa, Kill Bill: Volumen 1 (2003) [Open Matte] WEB-DL 1080p Multi-Doblaje Latino descargar gratis, descargar Kill Bill: Volumen 1 (2003) [Open Matte] WEB-DL 1080p Multi-Doblaje Latino pelicula latino, Kill Bill: Volumen 1 (2003) [Open Matte] WEB-DL 1080p Multi-Doblaje Latino 1 link mega, Kill Bill: Volumen 1 (2003) [Open Matte] WEB-DL 1080p Multi-Doblaje Latino 1 link google drive, Kill Bill: Volumen 1 (2003) [Open Matte] WEB-DL 1080p Multi-Doblaje Latino hd 1080p latino.
Comentarios 1
  • Juan Pedro Ojeda zavala - 10 septiembre, 2019

    SUBIRAN LA SEGUNDA PARTE,,,, GRACIAS