×

¿Problemas para descargar con Mozilla, EDGE? Deshabilita la opción "Abrir vinculos en una pestaña nueva" tal como lo muestra ésta imagen.

Kidnapping Mr. Heineken (2015) REMUX 1080p Latino – CMHDD

137 vistas

Información de Kidnapping Mr. Heineken (2015) REMUX 1080p Latino – CMHDD

Datos de la película

  • Calidad: Full 1080p
  • Audio: Español Latino AC3 2.0 DVD - Ingles DTS 5.1 BLURAY
  • Subtitulos: Español Latino SRT
  • Resolución: 1920x1080p
  • Formato: MKV
  • Codec: H.264
  • Encoder: Dracarys
  • Mediainfo: Clic para Mostrar Datos Ver
  • Format                      : Matroska
    Format version              : Version 4
    File size                   : 19.8 GiB
    Duration                    : 1 h 34 min
    Overall bit rate mode       : Variable
    Overall bit rate            : 30.0 Mb/s
    Movie name                  : Kidnapping Mr. Heineken (2015) REMUX 1080p Latino - CMHDD
    Encoded date                : UTC 2021-11-07 23:59:54
    Writing application         : mkvmerge v17.0.0 ('Be Ur Friend') 64-bit
    Writing library             : libebml v1.3.5 + libmatroska v1.4.8

    Video
    ID                          : 1
    Format                      : AVC
    Format/Info                 : Advanced Video Codec
    Format profile              : High@L4.1
    Format settings             : CABAC / 3 Ref Frames
    Format settings, CABAC      : Yes
    Format settings, Reference  : 3 frames
    Format settings, GOP        : M=3, N=12
    Codec ID                    : V_MPEG4/ISO/AVC
    Duration                    : 1 h 34 min
    Bit rate mode               : Variable
    Bit rate                    : 28.0 Mb/s
    Maximum bit rate            : 35.0 Mb/s
    Width                       : 1 920 pixels
    Height                      : 1 080 pixels
    Display aspect ratio        : 16:9
    Frame rate mode             : Constant
    Frame rate                  : 24.000 FPS
    Standard                    : NTSC
    Color space                 : YUV
    Chroma subsampling          : 4:2:0
    Bit depth                   : 8 bits
    Scan type                   : Progressive
    Bits/(Pixel*Frame)          : 0.563
    Stream size                 : 18.5 GiB (93%)
    Default                     : Yes
    Forced                      : No
    Color range                 : Limited
    Color primaries             : BT.709
    Transfer characteristics    : BT.709
    Matrix coefficients         : BT.709

    Audio #1
    ID                          : 2
    Format                      : DTS XLL
    Format/Info                 : Digital Theater Systems
    Commercial name             : DTS-HD Master Audio
    Codec ID                    : A_DTS
    Duration                    : 1 h 34 min
    Bit rate mode               : Variable
    Bit rate                    : 1 817 kb/s
    Channel(s)                  : 6 channels
    Channel layout              : C L R Ls Rs LFE
    Sampling rate               : 48.0 kHz
    Frame rate                  : 93.750 FPS (512 SPF)
    Bit depth                   : 16 bits
    Compression mode            : Lossless
    Stream size                 : 1.20 GiB (6%)
    Language                    : English
    Default                     : No
    Forced                      : No

    Audio #2
    ID                          : 3
    Format                      : AC-3
    Format/Info                 : Audio Coding 3
    Commercial name             : Dolby Digital
    Codec ID                    : A_AC3
    Duration                    : 1 h 34 min
    Bit rate mode               : Constant
    Bit rate                    : 224 kb/s
    Channel(s)                  : 2 channels
    Channel layout              : L R
    Sampling rate               : 48.0 kHz
    Frame rate                  : 31.250 FPS (1536 SPF)
    Compression mode            : Lossy
    Stream size                 : 151 MiB (1%)
    Language                    : Spanish
    Service kind                : Complete Main
    Default                     : Yes
    Forced                      : No

    Text
    ID                          : 4
    Format                      : UTF-8
    Codec ID                    : S_TEXT/UTF8
    Codec ID/Info               : UTF-8 Plain Text
    Duration                    : 1 h 28 min
    Bit rate                    : 64 b/s
    Count of elements           : 1310
    Stream size                 : 41.7 KiB (0%)
    Language                    : Spanish
    Default                     : No
    Forced                      : No

    Menu
    00:00:00.000                : en:Chapter 1
    00:13:22.750                : en:Chapter 2
    00:33:54.708                : en:Chapter 3
    00:56:57.250                : en:Chapter 4
    01:10:21.041                : en:Chapter 5
    01:27:38.125                : en:Chapter 6

  • Peso: 19.8 GiB

Sinopsis

Historia del conocido como secuestro más famoso del siglo: en 1983, el magnate de la cerveza Alfred Henry Heineken es secuestrado, junto con su chófer, por una banda que exige 50 millones de dólares por su libertad.

Ficha técnica

Video trailer de la película

Enlaces de descarga

Rip de Bluray

Descargar Kidnapping Mr. Heineken (2015) REMUX 1080p Latino – CMHDD


Aportes de DPeliculasHDmega la pass es:dpeliculashdmega.org Aportes de CinemaniaHD la pass es:cinemaniahdd.com
Guardado en : Acción , Crimen , Drama , Misterio , Suspenso

Películas relacionadas

descargar Kidnapping Mr. Heineken (2015) REMUX 1080p Latino – CMHDD Full 1080p 1080p gratis, Kidnapping Mr. Heineken (2015) REMUX 1080p Latino – CMHDD Full 1080p mega 1 link, Kidnapping Mr. Heineken (2015) REMUX 1080p Latino – CMHDD Full 1080p pelicula completa, descargar Kidnapping Mr. Heineken (2015) REMUX 1080p Latino – CMHDD Full 1080p gratis en mega.

Kidnapping Mr. Heineken (2015) REMUX 1080p Latino – CMHDD pelicula full hd, Kidnapping Mr. Heineken (2015) REMUX 1080p Latino – CMHDD mega latino, Kidnapping Mr. Heineken (2015) REMUX 1080p Latino – CMHDD 4k latino, Kidnapping Mr. Heineken (2015) REMUX 1080p Latino – CMHDD pelicula completa, Kidnapping Mr. Heineken (2015) REMUX 1080p Latino – CMHDD descargar gratis, descargar Kidnapping Mr. Heineken (2015) REMUX 1080p Latino – CMHDD pelicula latino, Kidnapping Mr. Heineken (2015) REMUX 1080p Latino – CMHDD 1 link mega, Kidnapping Mr. Heineken (2015) REMUX 1080p Latino – CMHDD 1 link google drive, Kidnapping Mr. Heineken (2015) REMUX 1080p Latino – CMHDD hd 1080p latino.