×

¿Problemas para descargar con Mozilla, EDGE? Deshabilita la opción "Abrir vinculos en una pestaña nueva" tal como lo muestra ésta imagen.

Kick-Ass (2010) REMUX 1080p Latino

981 vistas

Información de Kick-Ass (2010) REMUX 1080p Latino

kick ass listo para machacar 53961 poster

Datos de la película

  • Calidad: Full 1080p
  • Audio: Español Latino AC3 5.1 BLURAY - DTS-HD Master 7.1 BLURAY
  • Subtitulos: Español Latino PGS - Ingles PGS
  • Resolución: 1920x1080p
  • Formato: MKV
  • Codec: H.264
  • Encoder: CinefiloCool
  • Mediainfo: Clic para Mostrar Datos Ver
  • Kick-Ass (2010) REMUX 1080p Latino.mkv
    Format                      : Matroska
    Format version              : Version 4
    File size                   : 21.0 GiB
    Duration                    : 1 h 57 min
    Overall bit rate mode       : Variable
    Overall bit rate            : 25.6 Mb/s
    Movie name                  : CinemaniaHDD.Net
    Encoded date                : UTC 2019-06-07 07:04:11
    Writing application         : mkvmerge v30.1.0 ('Forever And More') 64-bit
    Writing library             : libebml v1.3.6 + libmatroska v1.4.9
    Attachments                 : CINEMANIAHD.png

    Video
    ID                          : 1
    Format                      : AVC
    Format/Info                 : Advanced Video Codec
    Format profile              : High@L4.1
    Format settings             : CABAC / 4 Ref Frames
    Format settings, CABAC      : Yes
    Format settings, ReFrames   : 4 frames
    Codec ID                    : V_MPEG4/ISO/AVC
    Duration                    : 1 h 57 min
    Bit rate mode               : Variable
    Bit rate                    : 20.0 Mb/s
    Maximum bit rate            : 37.0 Mb/s
    Width                       : 1 920 pixels
    Height                      : 1 080 pixels
    Display aspect ratio        : 16:9
    Frame rate mode             : Constant
    Frame rate                  : 23.976 (24000/1001) FPS
    Color space                 : YUV
    Chroma subsampling          : 4:2:0
    Bit depth                   : 8 bits
    Scan type                   : Progressive
    Bits/(Pixel*Frame)          : 0.402
    Stream size                 : 16.4 GiB (78%)
    Title                       : Full HD1080p [Remux]
    Default                     : Yes
    Forced                      : Yes
    Color range                 : Limited
    Color primaries             : BT.709
    Transfer characteristics    : BT.709
    Matrix coefficients         : BT.709

    Audio #1
    ID                          : 2
    Format                      : AC-3
    Format/Info                 : Audio Coding 3
    Commercial name             : Dolby Digital
    Codec ID                    : A_AC3
    Duration                    : 1 h 57 min
    Bit rate mode               : Constant
    Bit rate                    : 640 kb/s
    Channel(s)                  : 6 channels
    Channel layout              : L R C LFE Ls Rs
    Sampling rate               : 48.0 kHz
    Frame rate                  : 31.250 FPS (1536 SPF)
    Bit depth                   : 16 bits
    Compression mode            : Lossy
    Stream size                 : 539 MiB (3%)
    Title                       : AC3_5.1_Bluray_Esp
    Language                    : Spanish
    Service kind                : Complete Main
    Default                     : Yes
    Forced                      : Yes

    Audio #2
    ID                          : 3
    Format                      : DTS XLL
    Format/Info                 : Digital Theater Systems
    Commercial name             : DTS-HD Master Audio
    Codec ID                    : A_DTS
    Duration                    : 1 h 57 min
    Bit rate mode               : Variable
    Bit rate                    : 4 920 kb/s
    Channel(s)                  : 8 channels
    Channel layout              : C L R LFE Lb Rb Lss Rss
    Sampling rate               : 48.0 kHz
    Frame rate                  : 93.750 FPS (512 SPF)
    Bit depth                   : 24 bits
    Compression mode            : Lossless
    Stream size                 : 4.05 GiB (19%)
    Title                       : DTS-HD_7.1_Bluray_Eng
    Language                    : English
    Default                     : No
    Forced                      : No

    Text #1
    ID                          : 4
    Format                      : PGS
    Muxing mode                 : zlib
    Codec ID                    : S_HDMV/PGS
    Codec ID/Info               : Picture based subtitle format used on BDs/HD-DVDs
    Duration                    : 1 h 55 min
    Bit rate                    : 1 084 b/s
    Count of elements           : 62
    Stream size                 : 915 KiB (0%)
    Title                       : Sub_Forzados [PGS]
    Language                    : Spanish
    Default                     : Yes
    Forced                      : Yes

    Text #2
    ID                          : 5
    Format                      : PGS
    Muxing mode                 : zlib
    Codec ID                    : S_HDMV/PGS
    Codec ID/Info               : Picture based subtitle format used on BDs/HD-DVDs
    Duration                    : 1 h 57 min
    Bit rate                    : 38.4 kb/s
    Count of elements           : 3004
    Stream size                 : 32.2 MiB (0%)
    Title                       : Sub_Esp [PGS]
    Language                    : Spanish
    Default                     : No
    Forced                      : No

    Text #3
    ID                          : 6
    Format                      : PGS
    Muxing mode                 : zlib
    Codec ID                    : S_HDMV/PGS
    Codec ID/Info               : Picture based subtitle format used on BDs/HD-DVDs
    Duration                    : 1 h 50 min
    Bit rate                    : 38.4 kb/s
    Count of elements           : 2640
    Stream size                 : 30.3 MiB (0%)
    Title                       : Sub_Eng [PGS]
    Language                    : English
    Default                     : No
    Forced                      : No

    Menu
    00:00:00.000                : en:Chapter 1-A Regular Guy
    00:05:32.790                : en:Chpater 2-Be Honest
    00:15:55.079                : en:Chapter 3-Time To Engage
    00:21:09.518                : en:Chapter 4-Pop Quiz
    00:28:17.112                : en:Chapter 5-Here Kitty
    00:47:52.411                : en:Chapter 6-Daddy and Marcus
    00:52:32.983                : en:Chapter 7-Red Mist
    01:03:16.292                : en:Chapter 8-Watch This
    01:10:16.337                : en:Chapter 9-Worth Living For
    01:16:24.580                : en:Chapter 10-Need To Meet
    01:25:16.736                : en:Chapter 11-Hit Girl
    01:30:25.503                : en:Chapter 12-Job To Finish
    01:38:17.016                : en:Chapter 13-Under Control
    01:43:57.439                : en:Chapter 14-Play Time Is Over
    01:47:04.876                : en:Chapter 15-Time To Go Home
    01:49:46.580                : en:Chapter 16-Opened A Door

  • Peso: 21.0 GiB

Sinopsis

Descargar Kick-Ass (2010) REMUX 1080p Latino. Dave Lizewski es un estudiante de instituto que pasa desapercibido por todos, aficionado a los cómics, de donde saca un día la idea de convertirse en un superhéroe, aunque no tenga superpoderes, no haya seguido un duro entrenamiento y ni siquiera tenga una razón significativa para ello. Pero la vida de Dave cambiará para siempre cuando se encuentre con un par de locos vigilantes -la terremoto de 11 años Hit Girl y su padre, Big Daddy- y forje amistad con otro joven luchador contra el crimen, Red Mist. Y cuando todos se tengan que enfrentar al jefe de la mafia local, Frank D’Amico, sus alianzas y sus verdaderas habilidades serán puestas a prueba.

Ficha técnica

Video trailer de la película

Enlaces de descarga

Rip de Bluray

Descargar Kick-Ass (2010) REMUX 1080p Latino




Aportes de DPeliculasHDmega la pass es:dpeliculashdmega.org Aportes de CinemaniaHD la pass es:cinemaniahdd.com
Guardado en : Acción , Crimen , Remux

Películas relacionadas

descargar Kick-Ass (2010) REMUX 1080p Latino Full 1080p 1080p gratis, Kick-Ass (2010) REMUX 1080p Latino Full 1080p mega 1 link, Kick-Ass (2010) REMUX 1080p Latino Full 1080p pelicula completa, descargar Kick-Ass (2010) REMUX 1080p Latino Full 1080p gratis en mega.

Kick-Ass (2010) REMUX 1080p Latino pelicula full hd, Kick-Ass (2010) REMUX 1080p Latino mega latino, Kick-Ass (2010) REMUX 1080p Latino 4k latino, Kick-Ass (2010) REMUX 1080p Latino pelicula completa, Kick-Ass (2010) REMUX 1080p Latino descargar gratis, descargar Kick-Ass (2010) REMUX 1080p Latino pelicula latino, Kick-Ass (2010) REMUX 1080p Latino 1 link mega, Kick-Ass (2010) REMUX 1080p Latino 1 link google drive, Kick-Ass (2010) REMUX 1080p Latino hd 1080p latino.
Comentarios 0