×

¿Problemas para descargar con Mozilla, EDGE? Deshabilita la opción "Abrir vinculos en una pestaña nueva" tal como lo muestra ésta imagen.

Kick-Ass (2010) REMUX 4K HDR Latino – CMHDD

98 vistas

Información de Kick-Ass (2010) REMUX 4K HDR Latino – CMHDD

Datos de la película

  • Calidad: 4K HDR
  • Audio: Español Latino AC3 5.1 BLURAY - Ingles AC3 5.1 BLURAY
  • Subtitulos: Español Latino SRT- FORZADOS SRT
  • Resolución: 3840x2160p
  • Formato: MKV
  • Codec: H.264
  • Encoder: Dracarys
  • Mediainfo: Clic para Mostrar Datos Ver
  • Format                      : Matroska
    Format version              : Version 4
    File size                   : 58.5 GiB
    Duration                    : 1 h 57 min
    Overall bit rate mode       : Variable
    Overall bit rate            : 71.1 Mb/s
    Movie name                  : Kick-Ass (2010) REMUX 4K HDR Latino - CMHDD
    Encoded date                : UTC 2023-12-22 16:05:24
    Writing application         : mkvmerge v47.0.0 ('Black Flag') 64-bit
    Writing library             : libebml v1.3.10 + libmatroska v1.5.2

    Video
    ID                          : 1
    ID in the original source m : 4113 (0x1011)
    Format                      : HEVC
    Format/Info                 : High Efficiency Video Coding
    Format profile              : Main 10@L5.1@High
    HDR format                  : SMPTE ST 2086, HDR10 compatible
    Codec ID                    : V_MPEGH/ISO/HEVC
    Duration                    : 1 h 57 min
    Bit rate                    : 64.9 Mb/s
    Width                       : 3 840 pixels
    Height                      : 2 160 pixels
    Display aspect ratio        : 16:9
    Frame rate mode             : Constant
    Frame rate                  : 23.976 (24000/1001) FPS
    Color space                 : YUV
    Chroma subsampling          : 4:2:0 (Type 2)
    Bit depth                   : 10 bits
    Bits/(Pixel*Frame)          : 0.326
    Stream size                 : 53.4 GiB (91%)
    Default                     : Yes
    Forced                      : No
    Color range                 : Limited
    Color primaries             : BT.2020
    Transfer characteristics    : PQ
    Matrix coefficients         : BT.2020 non-constant
    Mastering display color pri : Display P3
    Mastering display luminance : min: 0.0050 cd/m2, max: 1000 cd/m2
    Maximum Content Light Level : 1000 cd/m2
    Maximum Frame-Average Light : 266 cd/m2
    Original source medium      : Blu-ray

    Audio #1
    ID                          : 2
    Format                      : AC-3
    Format/Info                 : Audio Coding 3
    Commercial name             : Dolby Digital
    Codec ID                    : A_AC3
    Duration                    : 1 h 57 min
    Bit rate mode               : Constant
    Bit rate                    : 640 kb/s
    Channel(s)                  : 6 channels
    Channel layout              : L R C LFE Ls Rs
    Sampling rate               : 48.0 kHz
    Frame rate                  : 31.250 FPS (1536 SPF)
    Compression mode            : Lossy
    Delay relative to video     : 150 ms
    Stream size                 : 539 MiB (1%)
    Language                    : Spanish
    Service kind                : Complete Main
    Default                     : Yes
    Forced                      : Yes

    Audio #2
    ID                          : 3
    Format                      : AC-3
    Format/Info                 : Audio Coding 3
    Commercial name             : Dolby Digital
    Format settings             : Dolby Surround EX
    Codec ID                    : A_AC3
    Duration                    : 1 h 57 min
    Bit rate mode               : Constant
    Bit rate                    : 640 kb/s
    Channel(s)                  : 6 channels
    Channel layout              : L R C LFE Ls Rs
    Sampling rate               : 48.0 kHz
    Frame rate                  : 31.250 FPS (1536 SPF)
    Compression mode            : Lossy
    Stream size                 : 539 MiB (1%)
    Language                    : English
    Service kind                : Complete Main
    Default                     : No
    Forced                      : No

    Audio #3
    ID                          : 4
    Format                      : MLP FBA 16-ch
    Format/Info                 : Meridian Lossless Packing FBA with 16-channel presentation
    Commercial name             : Dolby TrueHD with Dolby Atmos
    Codec ID                    : A_TRUEHD
    Duration                    : 1 h 57 min
    Bit rate mode               : Variable
    Bit rate                    : 4 854 kb/s
    Maximum bit rate            : 9 444 kb/s
    Channel(s)                  : 8 channels
    Channel layout              : L R C LFE Ls Rs Lb Rb
    Sampling rate               : 48.0 kHz
    Frame rate                  : 1 200.000 FPS (40 SPF)
    Compression mode            : Lossless
    Stream size                 : 3.99 GiB (7%)
    Language                    : English
    Default                     : No
    Forced                      : No
    Number of dynamic objects   : 15
    Bed channel count           : 1 channel
    Bed channel configuration   : LFE

    Text #1
    ID                          : 5
    Format                      : UTF-8
    Codec ID                    : S_TEXT/UTF8
    Codec ID/Info               : UTF-8 Plain Text
    Duration                    : 1 h 55 min
    Bit rate                    : 0 b/s
    Frame rate                  : 0.004 FPS
    Count of elements           : 31
    Stream size                 : 769 Bytes (0%)
    Title                       : Forzados
    Language                    : Spanish
    Default                     : Yes
    Forced                      : Yes

    Text #2
    ID                          : 6
    Format                      : UTF-8
    Codec ID                    : S_TEXT/UTF8
    Codec ID/Info               : UTF-8 Plain Text
    Duration                    : 1 h 57 min
    Bit rate                    : 62 b/s
    Frame rate                  : 0.214 FPS
    Count of elements           : 1505
    Stream size                 : 53.9 KiB (0%)
    Language                    : Spanish
    Default                     : No
    Forced                      : No

    Text #3
    ID                          : 7
    Format                      : PGS
    Muxing mode                 : zlib
    Codec ID                    : S_HDMV/PGS
    Codec ID/Info               : Picture based subtitle format used on BDs/HD-DVDs
    Duration                    : 1 h 57 min
    Bit rate                    : 38.5 kb/s
    Frame rate                  : 0.428 FPS
    Count of elements           : 3006
    Stream size                 : 32.2 MiB (0%)
    Language                    : Spanish
    Default                     : No
    Forced                      : No

    Menu
    00:00:00.000                : en:A Regular Guy
    00:05:33.542                : en:Be Honest
    00:15:55.830                : en:Time To Engage
    00:21:10.269                : en:Pop Quiz
    00:28:17.905                : en:Here Kitty
    00:47:53.162                : en:Daddy and Marcus
    00:52:35.027                : en:Red Mist
    01:03:17.043                : en:Watch This
    01:10:17.088                : en:Worth Living For
    01:16:25.331                : en:Need To Meet
    01:25:17.487                : en:Hit Girl
    01:30:26.254                : en:Job To Finish
    01:38:17.558                : en:Under Control
    01:43:58.190                : en:Playtime is Over
    01:47:05.628                : en:Time To Go Home
    01:49:47.331                : en:Opened A Door

     

  • Peso: 58.5 GiB

Sinopsis

Dave Lizewski es un estudiante de instituto que pasa desapercibido por todos, aficionado a los cómics, de donde saca un día la idea de convertirse en un superhéroe, aunque no tenga superpoderes, no haya seguido un duro entrenamiento y ni siquiera tenga una razón significativa para ello. Pero la vida de Dave cambiará para siempre cuando se encuentre con un par de locos vigilantes -la terremoto de 11 años Hit Girl y su padre, Big Daddy- y forje amistad con otro joven luchador contra el crimen, Red Mist. Y cuando todos se tengan que enfrentar al jefe de la mafia local, Frank D’Amico, sus alianzas y sus verdaderas habilidades serán puestas a prueba.

Ficha técnica

Video trailer de la película

Enlaces de descarga

Rip de Bluray

Descargar Kick-Ass (2010) REMUX 4K HDR Latino – CMHDD




Aportes de DPeliculasHDmega la pass es:dpeliculashdmega.org Aportes de CinemaniaHD la pass es:cinemaniahdd.com Aportes recientes:cinemaniahdd.net
Guardado en : Acción , Crimen

Películas relacionadas

descargar Kick-Ass (2010) REMUX 4K HDR Latino – CMHDD 4K HDR 1080p gratis, Kick-Ass (2010) REMUX 4K HDR Latino – CMHDD 4K HDR mega 1 link, Kick-Ass (2010) REMUX 4K HDR Latino – CMHDD 4K HDR pelicula completa, descargar Kick-Ass (2010) REMUX 4K HDR Latino – CMHDD 4K HDR gratis en mega.

Kick-Ass (2010) REMUX 4K HDR Latino – CMHDD pelicula full hd, Kick-Ass (2010) REMUX 4K HDR Latino – CMHDD mega latino, Kick-Ass (2010) REMUX 4K HDR Latino – CMHDD 4k latino, Kick-Ass (2010) REMUX 4K HDR Latino – CMHDD pelicula completa, Kick-Ass (2010) REMUX 4K HDR Latino – CMHDD descargar gratis, descargar Kick-Ass (2010) REMUX 4K HDR Latino – CMHDD pelicula latino, Kick-Ass (2010) REMUX 4K HDR Latino – CMHDD 1 link mega, Kick-Ass (2010) REMUX 4K HDR Latino – CMHDD 1 link google drive, Kick-Ass (2010) REMUX 4K HDR Latino – CMHDD hd 1080p latino.
Comentarios 0