×

¿Problemas para descargar con Mozilla, EDGE? Deshabilita la opción "Abrir vinculos en una pestaña nueva" tal como lo muestra ésta imagen.

Kick-Ass 2 (2013) REMUX 1080p Latino

963 vistas

Información de Kick-Ass 2 (2013) REMUX 1080p Latino

kick ass 2 con un par 53965 poster

Datos de la película

  • Calidad: Full 1080p
  • Audio: Español Latino DTS 5.1 BLURAY - Ingles DTS 5.1 BLURAY
  • Subtitulos: Español Latino PGS - Ingles PGS
  • Resolución: 1920x1080p
  • Formato: MKV
  • Codec: H.264
  • Encoder: CinefiloCool
  • Mediainfo: Clic para Mostrar Datos Ver
  • Kick-Ass 2 (2013) REMUX 1080p Latino.mkv
    Format                      : Matroska
    Format version              : Version 4
    File size                   : 21.8 GiB
    Duration                    : 1 h 43 min
    Overall bit rate mode       : Variable
    Overall bit rate            : 30.3 Mb/s
    Movie name                  : CinemaniaHDD.Net
    Encoded date                : UTC 2019-06-06 05:33:08
    Writing application         : mkvmerge v30.1.0 ('Forever And More') 64-bit
    Writing library             : libebml v1.3.6 + libmatroska v1.4.9
    Attachments                 : CINEMANIAHD.png

    Video
    ID                          : 1
    Format                      : AVC
    Format/Info                 : Advanced Video Codec
    Format profile              : High@L4.1
    Format settings             : CABAC / 4 Ref Frames
    Format settings, CABAC      : Yes
    Format settings, ReFrames   : 4 frames
    Format settings, GOP        : M=3, N=12
    Codec ID                    : V_MPEG4/ISO/AVC
    Duration                    : 1 h 43 min
    Bit rate mode               : Variable
    Bit rate                    : 27.4 Mb/s
    Maximum bit rate            : 33.0 Mb/s
    Width                       : 1 920 pixels
    Height                      : 1 080 pixels
    Display aspect ratio        : 16:9
    Frame rate mode             : Constant
    Frame rate                  : 23.976 (24000/1001) FPS
    Color space                 : YUV
    Chroma subsampling          : 4:2:0
    Bit depth                   : 8 bits
    Scan type                   : Progressive
    Bits/(Pixel*Frame)          : 0.552
    Stream size                 : 19.7 GiB (90%)
    Title                       : Full HD1080p [Remux]
    Default                     : Yes
    Forced                      : No

    Audio #1
    ID                          : 2
    Format                      : DTS
    Format/Info                 : Digital Theater Systems
    Codec ID                    : A_DTS
    Duration                    : 1 h 43 min
    Bit rate mode               : Constant
    Bit rate                    : 768 kb/s
    Channel(s)                  : 6 channels
    Channel layout              : C L R Ls Rs LFE
    Sampling rate               : 48.0 kHz
    Frame rate                  : 93.750 FPS (512 SPF)
    Bit depth                   : 24 bits
    Compression mode            : Lossy
    Stream size                 : 566 MiB (3%)
    Title                       : DTS_5.1_Bluray_Esp
    Language                    : Spanish
    Default                     : Yes
    Forced                      : Yes

    Audio #2
    ID                          : 3
    Format                      : DTS XLL
    Format/Info                 : Digital Theater Systems
    Commercial name             : DTS-HD Master Audio
    Codec ID                    : A_DTS
    Duration                    : 1 h 43 min
    Bit rate mode               : Variable
    Bit rate                    : 2 106 kb/s
    Channel(s)                  : 6 channels
    Channel layout              : C L R Ls Rs LFE
    Sampling rate               : 48.0 kHz
    Frame rate                  : 93.750 FPS (512 SPF)
    Bit depth                   : 16 bits
    Compression mode            : Lossless
    Stream size                 : 1.51 GiB (7%)
    Title                       : DTS-HD_5.1_Bluray_Eng
    Language                    : English
    Default                     : No
    Forced                      : No

    Text #1
    ID                          : 4
    Format                      : PGS
    Muxing mode                 : zlib
    Codec ID                    : S_HDMV/PGS
    Codec ID/Info               : Picture based subtitle format used on BDs/HD-DVDs
    Duration                    : 1 h 41 min
    Bit rate                    : 39.1 kb/s
    Count of elements           : 2496
    Stream size                 : 28.5 MiB (0%)
    Title                       : Sub_Esp [PGS]
    Language                    : Spanish
    Default                     : No
    Forced                      : No

    Text #2
    ID                          : 5
    Format                      : PGS
    Muxing mode                 : zlib
    Codec ID                    : S_HDMV/PGS
    Codec ID/Info               : Picture based subtitle format used on BDs/HD-DVDs
    Duration                    : 1 h 42 min
    Bit rate                    : 51.6 kb/s
    Count of elements           : 3522
    Stream size                 : 37.7 MiB (0%)
    Title                       : Sub_Eng [PGS]
    Language                    : English
    Default                     : No
    Forced                      : No

    Menu
    00:00:00.000                : :Chapter 01
    00:05:58.191                : :Chapter 02
    00:10:37.928                : :Chapter 03
    00:14:08.305                : :Chapter 04
    00:19:11.108                : :Chapter 05
    00:23:11.348                : :Chapter 06
    00:30:20.443                : :Chapter 07
    00:35:25.498                : :Chapter 08
    00:40:13.786                : :Chapter 09
    00:45:37.192                : :Chapter 10
    00:52:35.777                : :Chapter 11
    00:58:02.395                : :Chapter 12
    01:00:37.842                : :Chapter 13
    01:05:36.098                : :Chapter 14
    01:09:57.943                : :Chapter 15
    01:15:56.343                : :Chapter 16
    01:21:05.485                : :Chapter 17
    01:23:32.549                : :Chapter 18
    01:33:05.538                : :Chapter 19
    01:36:38.250                : :Chapter 20

  • Peso: 21.8 GiB

Sinopsis

Descargar Kick-Ass 2 (2013) REMUX 1080p Latino. Secuela de la aclamada película Kick-Ass (2010), basada en el cómic de Mark Millar. Después de que la loca valentía de Kick-Ass (Aaron Taylor-Johnson) inspirara a toda una oleada de nuevos defensores del bien dirigidos por el durísimo coronel Stars and Stripes (Jim Carrey), nuestro héroe decide unirse a ellos. Pero cuando Bruma Roja (Christopher Mintz-Plasse), que regresa con el nombre de The Mother, decide deshacerse de los superhéroes aficionados, solo Hit Girl (Chloë Grace Moretz) podrá impedir que los aniquile.

Ficha técnica

Video trailer de la película

Enlaces de descarga

Rip de Bluray

Descargar Kick-Ass 2 (2013) REMUX 1080p Latino




Aportes de DPeliculasHDmega la pass es:dpeliculashdmega.org Aportes de CinemaniaHD la pass es:cinemaniahdd.com
Guardado en : Acción , Aventura , Crimen , Remux

Películas relacionadas

  • Un mundo extraño (2022) HD 1080p Latino

    Un mundo extraño (2022) HD 1080p Latino

    2022
    Un mundo extraño (2022) HD 1080p Latino

    1h 42m 2022

    Descargar Un mundo extraño (2022) HD 1080p Latino. Los Clades son una familia conocida en todo el mundo,...

    Director: Thai Bettistea

    Género: Animación

    Actores: Reed Buck

  • Un mundo extraño (2022) REMUX 1080p Latino

    Un mundo extraño (2022) REMUX 1080p Latino

    2022
    Un mundo extraño (2022) REMUX 1080p Latino

    1h 42m 2022

    Descargar Un mundo extraño (2022) REMUX 1080p. Un viaje a una tierra inexplorada y traicionera en la...

    Director: Thai Bettistea

    Género: Animación

    Actores: Reed Buck

  • Infiesto (2023) NF WEB-DL 1080p Castellano

    Infiesto (2023) NF WEB-DL 1080p Castellano

    2023
    Infiesto (2023) NF WEB-DL 1080p Castellano

    1h 36m 2023

    Descargar Infiesto (2023) NF WEB-DL 1080p Castellano. Mientras el coronavirus trastoca sus vidas, dos...

    Director: Patxi Amezcua

    Género: Crimen

    Actores: Luis Zahera

  • Espiritu Libre (2023) NF WEB-DL 1080p Latino

    Espiritu Libre (2023) NF WEB-DL 1080p Latino

    2023
    Espiritu Libre (2023) NF WEB-DL 1080p Latino

    1h 49m 2023

    Descargar Espiritu Libre (2023) NF WEB-DL 1080p Latino. La película se basa en la increíble historia...

    Director: Sarah Spillane

    Género: Aventura

    Actores: Vivien Turner

descargar Kick-Ass 2 (2013) REMUX 1080p Latino Full 1080p 1080p gratis, Kick-Ass 2 (2013) REMUX 1080p Latino Full 1080p mega 1 link, Kick-Ass 2 (2013) REMUX 1080p Latino Full 1080p pelicula completa, descargar Kick-Ass 2 (2013) REMUX 1080p Latino Full 1080p gratis en mega.

Kick-Ass 2 (2013) REMUX 1080p Latino pelicula full hd, Kick-Ass 2 (2013) REMUX 1080p Latino mega latino, Kick-Ass 2 (2013) REMUX 1080p Latino 4k latino, Kick-Ass 2 (2013) REMUX 1080p Latino pelicula completa, Kick-Ass 2 (2013) REMUX 1080p Latino descargar gratis, descargar Kick-Ass 2 (2013) REMUX 1080p Latino pelicula latino, Kick-Ass 2 (2013) REMUX 1080p Latino 1 link mega, Kick-Ass 2 (2013) REMUX 1080p Latino 1 link google drive, Kick-Ass 2 (2013) REMUX 1080p Latino hd 1080p latino.
Comentarios 0