×

¿Problemas para descargar con Mozilla, EDGE? Deshabilita la opción "Abrir vinculos en una pestaña nueva" tal como lo muestra ésta imagen.

Kick-Ass 2 (2013) REMUX 4K HDR Latino – CMHDD

112 vistas

Información de Kick-Ass 2 (2013) REMUX 4K HDR Latino – CMHDD

Datos de la película

  • Calidad: 4K HDR
  • Audio: Español Latino AC3 5.1 BLURAY - Ingles AC3 5.1 BLURAY
  • Subtitulos: Español Latino SRT
  • Resolución: 3840x2160p
  • Formato: MKV
  • Codec: H.264
  • Encoder: Dracarys
  • Mediainfo: Clic para Mostrar Datos Ver
  • Format                      : Matroska
    Format version              : Version 4
    File size                   : 38.0 GiB
    Duration                    : 1 h 43 min
    Overall bit rate mode       : Variable
    Overall bit rate            : 52.8 Mb/s
    Movie name                  : Kick-Ass 2 (2013) REMUX 4K HDR Latino - CMHDD
    Encoded date                : UTC 2023-12-22 16:28:41
    Writing application         : mkvmerge v47.0.0 ('Black Flag') 64-bit
    Writing library             : libebml v1.3.10 + libmatroska v1.5.2
     

    Video
    ID                          : 1
    Format                      : HEVC
    Format/Info                 : High Efficiency Video Coding
    Format profile              : Main 10@L5.1@High
    HDR format                  : SMPTE ST 2086, HDR10 compatible
    Codec ID                    : V_MPEGH/ISO/HEVC
    Duration                    : 1 h 43 min
    Bit rate                    : 45.9 Mb/s
    Width                       : 3 840 pixels
    Height                      : 2 160 pixels
    Display aspect ratio        : 16:9
    Frame rate mode             : Constant
    Frame rate                  : 23.976 (24000/1001) FPS
    Color space                 : YUV
    Chroma subsampling          : 4:2:0 (Type 2)
    Bit depth                   : 10 bits
    Bits/(Pixel*Frame)          : 0.231
    Stream size                 : 33.0 GiB (87%)
    Writing library             : ATEME Titan File 3.9.6 (4.9.6.2)        
    Default                     : Yes
    Forced                      : No
    Color range                 : Limited
    Color primaries             : BT.2020
    Transfer characteristics    : PQ
    Matrix coefficients         : BT.2020 non-constant
    Mastering display color pri : Display P3
    Mastering display luminance : min: 0.0050 cd/m2, max: 1000 cd/m2
    Maximum Content Light Level : 1000 cd/m2
    Maximum Frame-Average Light : 119 cd/m2

    Audio #1
    ID                          : 2
    Format                      : AC-3
    Format/Info                 : Audio Coding 3
    Commercial name             : Dolby Digital
    Codec ID                    : A_AC3
    Duration                    : 1 h 43 min
    Bit rate mode               : Constant
    Bit rate                    : 640 kb/s
    Channel(s)                  : 6 channels
    Channel layout              : L R C LFE Ls Rs
    Sampling rate               : 48.0 kHz
    Frame rate                  : 31.250 FPS (1536 SPF)
    Compression mode            : Lossy
    Delay relative to video     : 1 s 0 ms
    Stream size                 : 472 MiB (1%)
    Language                    : Spanish
    Service kind                : Complete Main
    Default                     : Yes
    Forced                      : Yes

    Audio #2
    ID                          : 3
    Format                      : AC-3
    Format/Info                 : Audio Coding 3
    Commercial name             : Dolby Digital
    Codec ID                    : A_AC3
    Duration                    : 1 h 43 min
    Bit rate mode               : Constant
    Bit rate                    : 640 kb/s
    Channel(s)                  : 6 channels
    Channel layout              : L R C LFE Ls Rs
    Sampling rate               : 48.0 kHz
    Frame rate                  : 31.250 FPS (1536 SPF)
    Compression mode            : Lossy
    Stream size                 : 472 MiB (1%)
    Language                    : English
    Service kind                : Complete Main
    Default                     : No
    Forced                      : No

    Audio #3
    ID                          : 4
    Format                      : DTS XLL X
    Format/Info                 : Digital Theater Systems
    Commercial name             : DTS-HD Master Audio
    Codec ID                    : A_DTS
    Duration                    : 1 h 43 min
    Bit rate mode               : Variable
    Bit rate                    : 5 637 kb/s
    Channel(s)                  : 8 channels
    Channel(s)_Original         : Object Based
    ChannelLayout_Original      : Object Based
    Sampling rate               : 48.0 kHz
    Frame rate                  : 93.750 FPS (512 SPF)
    Bit depth                   : 24 bits
    Stream size                 : 4.06 GiB (11%)
    Language                    : English
    Default                     : No
    Forced                      : No

    Text #1
    ID                          : 5
    Format                      : UTF-8
    Codec ID                    : S_TEXT/UTF8
    Codec ID/Info               : UTF-8 Plain Text
    Duration                    : 1 h 41 min
    Bit rate                    : 71 b/s
    Frame rate                  : 0.236 FPS
    Count of elements           : 1442
    Stream size                 : 53.6 KiB (0%)
    Language                    : Spanish
    Default                     : No
    Forced                      : No

    Text #2
    ID                          : 6
    Format                      : PGS
    Muxing mode                 : zlib
    Codec ID                    : S_HDMV/PGS
    Codec ID/Info               : Picture based subtitle format used on BDs/HD-DVDs
    Duration                    : 1 h 41 min
    Bit rate                    : 38.7 kb/s
    Frame rate                  : 0.408 FPS
    Count of elements           : 2496
    Stream size                 : 28.2 MiB (0%)
    Language                    : Spanish
    Default                     : No
    Forced                      : No

    Menu
    00:00:00.000                : en:Chapter 1
    00:05:58.858                : en:Chapter 2
    00:10:38.596                : en:Chapter 3
    00:14:08.973                : en:Chapter 4
    00:19:11.776                : en:Chapter 5
    00:23:12.016                : en:Chapter 6
    00:30:21.111                : en:Chapter 7
    00:35:26.166                : en:Chapter 8
    00:40:14.454                : en:Chapter 9
    00:45:37.860                : en:Chapter 10
    00:52:36.445                : en:Chapter 11
    00:58:03.063                : en:Chapter 12
    01:00:38.510                : en:Chapter 13
    01:05:36.766                : en:Chapter 14
    01:09:58.611                : en:Chapter 15
    01:15:57.011                : en:Chapter 16
    01:21:06.153                : en:Chapter 17
    01:23:33.217                : en:Chapter 18
    01:33:06.206                : en:Chapter 19
    01:36:38.918                : en:Chapter 20

     

  • Peso: 38.0 GiB

Sinopsis

Secuela de la aclamada película Kick-Ass (2010), basada en el cómic de Mark Millar. Después de que la loca valentía de Kick-Ass (Aaron Taylor-Johnson) inspirara a toda una oleada de nuevos defensores del bien dirigidos por el durísimo coronel Stars and Stripes (Jim Carrey), nuestro héroe decide unirse a ellos. Pero cuando Bruma Roja (Christopher Mintz-Plasse), que regresa con el nombre de The Mother, decide deshacerse de los superhéroes aficionados, solo Hit Girl (Chloë Grace Moretz) podrá impedir que los aniquile.

Ficha técnica

Video trailer de la película

Enlaces de descarga

Rip de Bluray

Descargar Kick-Ass 2 (2013) REMUX 4K HDR Latino – CMHDD




Aportes de DPeliculasHDmega la pass es:dpeliculashdmega.org Aportes de CinemaniaHD la pass es:cinemaniahdd.com Aportes recientes:cinemaniahdd.net
Guardado en : Acción , Aventura , Crimen

Películas relacionadas

  • iZombie (2016) Temporada 02 Full HD 1080p Latino

    iZombie (2016) Temporada 02 Full HD 1080p Latino

    2015
    iZombie (2016) Temporada 02 Full HD 1080p Latino

    0h 42m 2015

    Descargar iZombie (2016) Temporada 02 Full HD 1080p Latino. Gira en torno a una estudiante de medicina...

    Director: Rob Thomas

    Género: Crimen

    Actores: Rose McIver

  • iZombie (2016) Temporada 02 REMUX 1080p Latino

    iZombie (2016) Temporada 02 REMUX 1080p Latino

    2015
    iZombie (2016) Temporada 02 REMUX 1080p Latino

    0h 42m 2015

    Descargar iZombie (2016) Temporada 02 REMUX 1080p Latino. Gira en torno a una estudiante de medicina...

    Director: Rob Thomas

    Género: Crimen

    Actores: Rose McIver

  • iZombie (2015) Temporada 01 Full HD 1080p Latino

    iZombie (2015) Temporada 01 Full HD 1080p Latino

    2015
    iZombie (2015) Temporada 01 Full HD 1080p Latino

    0h 42m 2015

    Descargar iZombie (2015) Temporada 01 Full HD 1080p Latino. Gira en torno a una estudiante de medicina...

    Director: Rob Thomas

    Género: Crimen

    Actores: Rose McIver

  • iZombie (2015) Temporada 01 REMUX 1080p Latino

    iZombie (2015) Temporada 01 REMUX 1080p Latino

    2015
    iZombie (2015) Temporada 01 REMUX 1080p Latino

    0h 42m 2015

    Descargar iZombie (2015) Temporada 01 REMUX 1080p Latino. Gira en torno a una estudiante de medicina...

    Director: Rob Thomas

    Género: Crimen

    Actores: Rose McIver

  • Chucky (2023) Temporada 3 WEB-DL 1080p Latino

    Chucky (2023) Temporada 3 WEB-DL 1080p Latino

    2021
    Chucky (2023) Temporada 3 WEB-DL 1080p Latino

    0h 42m 2021

    El infame Chucky se abre paso a cuchilladas hacia la televisión en una nueva y mortífera serie escrita...

    Director: Nick Antosca

    Género: Crimen

    Actores: Zackary Arthur

descargar Kick-Ass 2 (2013) REMUX 4K HDR Latino – CMHDD 4K HDR 1080p gratis, Kick-Ass 2 (2013) REMUX 4K HDR Latino – CMHDD 4K HDR mega 1 link, Kick-Ass 2 (2013) REMUX 4K HDR Latino – CMHDD 4K HDR pelicula completa, descargar Kick-Ass 2 (2013) REMUX 4K HDR Latino – CMHDD 4K HDR gratis en mega.

Kick-Ass 2 (2013) REMUX 4K HDR Latino – CMHDD pelicula full hd, Kick-Ass 2 (2013) REMUX 4K HDR Latino – CMHDD mega latino, Kick-Ass 2 (2013) REMUX 4K HDR Latino – CMHDD 4k latino, Kick-Ass 2 (2013) REMUX 4K HDR Latino – CMHDD pelicula completa, Kick-Ass 2 (2013) REMUX 4K HDR Latino – CMHDD descargar gratis, descargar Kick-Ass 2 (2013) REMUX 4K HDR Latino – CMHDD pelicula latino, Kick-Ass 2 (2013) REMUX 4K HDR Latino – CMHDD 1 link mega, Kick-Ass 2 (2013) REMUX 4K HDR Latino – CMHDD 1 link google drive, Kick-Ass 2 (2013) REMUX 4K HDR Latino – CMHDD hd 1080p latino.
Comentarios 0