×

¿Problemas para descargar con Mozilla, EDGE? Deshabilita la opción "Abrir vinculos en una pestaña nueva" tal como lo muestra ésta imagen.

Ken Jeong: You Complete Me, Ho (2019) NF WEB-DL Subtitulado

545 vistas

Información de Ken Jeong: You Complete Me, Ho (2019) NF WEB-DL Subtitulado

ken jeong you complete me ho 49672 poster

Datos de la película

  • Calidad: WEBDL
  • Audio: Ingles AC3 5.1 Netflix
  • Subtitulos: Español Latino SRT
  • Resolución: 1920x1080
  • Formato: MKV
  • Codec: H.264
  • Encoder: cinemaniahdd
  • Mediainfo: Clic para Mostrar Datos Ver
  • Ken Jeong. Me completas, Ho (2019) NF WEB-DL Subtitulado.mkv
    Format                      : Matroska
    Format version              : Version 4
    File size                   : 906 MiB
    Duration                    : 1 h 2 min
    Overall bit rate mode       : Variable
    Overall bit rate            : 2 031 kb/s
    Movie name                  : CinemaniaHDD.Net
    Encoded date                : UTC 2019-02-14 22:51:20 / UTC 2019-01-22 21:29:29
    Writing application         : mkvmerge v22.0.0 ('At The End Of The World') 64-bit
    Writing library             : libebml v1.3.5 + libmatroska v1.4.8 / Lavf58.0.0

    Video
    ID                          : 1
    Format                      : AVC
    Format/Info                 : Advanced Video Codec
    Format profile              : High@L4
    Format settings             : CABAC / 4 Ref Frames
    Format settings, CABAC      : Yes
    Format settings, ReFrames   : 4 frames
    Codec ID                    : V_MPEG4/ISO/AVC
    Duration                    : 1 h 2 min
    Bit rate mode               : Variable
    Bit rate                    : 1 607 kb/s
    Maximum bit rate            : 20.0 Mb/s
    Width                       : 1 920 pixels
    Height                      : 1 080 pixels
    Display aspect ratio        : 16:9
    Frame rate mode             : Constant
    Frame rate                  : 23.976 (24000/1001) FPS
    Color space                 : YUV
    Chroma subsampling          : 4:2:0
    Bit depth                   : 8 bits
    Scan type                   : Progressive
    Bits/(Pixel*Frame)          : 0.032
    Stream size                 : 716 MiB (79%)
    Title                       : CinemaniaHDD
    Writing library             : x264 core 148 r2715 7e75228
    Encoding settings           : cabac=1 / ref=4 / deblock=1:0:0 / analyse=0x3:0x111 / me=umh / subme=10 / psy=1 / psy_rd=1.00:0.00 / mixed_ref=1 / me_range=120 / chroma_me=1 / trellis=2 / 8x8dct=1 / cqm=0 / deadzone=21,11 / fast_pskip=1 / chroma_qp_offset=-2 / threads=8 / lookahead_threads=2 / sliced_threads=0 / nr=0 / decimate=1 / interlaced=0 / bluray_compat=0 / stitchable=1 / constrained_intra=0 / bframes=16 / b_pyramid=2 / b_adapt=2 / b_bias=0 / direct=3 / weightb=1 / open_gop=0 / weightp=2 / keyint=240 / keyint_min=121 / scenecut=0 / intra_refresh=0 / rc_lookahead=240 / rc=crf / mbtree=1 / crf=20.0 / qcomp=0.50 / qpmin=6 / qpmax=51 / qpstep=4 / vbv_maxrate=20000 / vbv_bufsize=25000 / crf_max=0.0 / nal_hrd=vbr / filler=0 / ip_ratio=1.40 / aq=1:0.80
    Default                     : Yes
    Forced                      : No
    Statistics Tags Issue       : mkvmerge v22.0.0 ('At The End Of The World') 64-bit 2019-02-14 22:51:20 / mkvmerge v22.0.0 ('At The End Of The World') 64-bit 2019-02-14 22:51:20 / UTC 2019-01-22 21:29:29
    FromStats_BitRate           : 1645272
    FromStats_Duration          : 01:02:19.861000000
    FromStats_FrameCount        : 89667
    FromStats_StreamSize        : 769136163

    Audio
    ID                          : 2
    Format                      : AC-3
    Format/Info                 : Audio Coding 3
    Commercial name             : Dolby Digital
    Codec ID                    : A_AC3
    Duration                    : 1 h 2 min
    Bit rate mode               : Constant
    Bit rate                    : 384 kb/s
    Channel(s)                  : 6 channels
    Channel layout              : L R C LFE Ls Rs
    Sampling rate               : 48.0 kHz
    Frame rate                  : 31.250 FPS (1536 SPF)
    Bit depth                   : 16 bits
    Compression mode            : Lossy
    Stream size                 : 171 MiB (19%)
    Title                       : Inglés [CinemaniaHDD]
    Language                    : English
    Service kind                : Complete Main
    Default                     : Yes
    Forced                      : No
    Encoded date                : UTC 2019-01-22 21:29:29
    Statistics Tags Issue       : mkvmerge v22.0.0 ('At The End Of The World') 64-bit 2019-02-14 22:51:20 / mkvmerge v22.0.0 ('At The End Of The World') 64-bit 2019-02-14 22:51:20 / UTC 2019-01-22 21:29:29
    FromStats_BitRate           : 384000
    FromStats_Duration          : 01:02:20.192000000
    FromStats_FrameCount        : 116881
    FromStats_StreamSize        : 179529216

    Text
    ID                          : 3
    Format                      : UTF-8
    Codec ID                    : S_TEXT/UTF8
    Codec ID/Info               : UTF-8 Plain Text
    Title                       : Español latino [CinemaniaHDD]
    Language                    : Spanish
    Default                     : Yes
    Forced                      : Yes
    Statistics Tags Issue       : mkvmerge v22.0.0 ('At The End Of The World') 64-bit 2019-02-14 22:51:20 / mkvmerge v22.0.0 ('At The End Of The World') 64-bit 2019-02-14 22:51:20 / UTC 2019-01-22 21:29:29
    FromStats_BitRate           : 77
    FromStats_Duration          : 01:01:58.673000000
    FromStats_FrameCount        : 1051
    FromStats_StreamSize        : 35856

  • Peso: 906 MiB

Sinopsis

Descripción:
En su primer especial de pie, Ken Jeong rinde homenaje a su esposa y comparte historias sobre Hollywood y cómo «The Hangover» le salvó la vida.

 

Ficha técnica

  • Titulo original: Ken Jeong: You Complete Me, Ho
  • Fecha de lanzamiento: 14-02-2019
  • Género: Comedia, Película de TV

Video trailer de la película

Enlaces de descarga

Rip de Bluray

Descargar Ken Jeong: You Complete Me, Ho (2019) NF WEB-DL Subtitulado




Aportes de DPeliculasHDmega la pass es:dpeliculashdmega.org Aportes de CinemaniaHD la pass es:cinemaniahdd.com
Guardado en : Comedia , Película de TV

Películas relacionadas

  • Hombre de familia (2000) REMUX 1080p Latino

    Hombre de familia (2000) REMUX 1080p Latino

    2000
    Hombre de familia (2000) REMUX 1080p Latino

    2h 1m 2000

    Descargar Hombre de familia (2000) REMUX 1080p Latino. Jack Campbell es un egocéntrico broker de Wall...

    Director: Robert Schroer

    Género: Comedia

    Actores: Wass Stevens

  • Te Amo Brother (2009) REMUX 1080p Latino

    Te Amo Brother (2009) REMUX 1080p Latino

    2009
    Te Amo Brother (2009) REMUX 1080p Latino

    1h 45m 2009

    Descargar Te Amo Brother (2009) REMUX 1080p Latino. Peter Klaven (Paul Rudd) es un joven que vive muy...

    Director: Scott Robertson

    Género: Comedia

    Actores: Vicki Davis

  • Asústame (2020) HD 1080p Latino

    Asústame (2020) HD 1080p Latino

    2020
    Asústame (2020) HD 1080p Latino

    1h 44m 2020

    Descargar Asústame (2020) HD 1080p Latino. Durante un corte de energía, dos extraños cuentan historias...

    Director: Josh Ruben

    Género: Comedia

    Actores: Rebecca Drysdale

  • Asústame (2020) PLACEBO Full HD 1080p Latino

    Asústame (2020) PLACEBO Full HD 1080p Latino

    2020
    Asústame (2020) PLACEBO Full HD 1080p Latino

    1h 44m 2020

    Descargar Asústame (2020) PLACEBO Full HD 1080p Latino. Durante un corte de energía, dos extraños...

    Director: Josh Ruben

    Género: Comedia

    Actores: Rebecca Drysdale

  • Asústame (2020) REMUX 1080p Latino

    Asústame (2020) REMUX 1080p Latino

    2020
    Asústame (2020) REMUX 1080p Latino

    1h 44m 2020

    Descargar Asústame (2020) REMUX 1080p Latino. Durante un corte de energía, dos extraños cuentan historias...

    Director: Josh Ruben

    Género: Comedia

    Actores: Rebecca Drysdale

descargar Ken Jeong: You Complete Me, Ho (2019) NF WEB-DL Subtitulado WEBDL 1080p gratis, Ken Jeong: You Complete Me, Ho (2019) NF WEB-DL Subtitulado WEBDL mega 1 link, Ken Jeong: You Complete Me, Ho (2019) NF WEB-DL Subtitulado WEBDL pelicula completa, descargar Ken Jeong: You Complete Me, Ho (2019) NF WEB-DL Subtitulado WEBDL gratis en mega.

Ken Jeong: You Complete Me, Ho (2019) NF WEB-DL Subtitulado pelicula full hd, Ken Jeong: You Complete Me, Ho (2019) NF WEB-DL Subtitulado mega latino, Ken Jeong: You Complete Me, Ho (2019) NF WEB-DL Subtitulado 4k latino, Ken Jeong: You Complete Me, Ho (2019) NF WEB-DL Subtitulado pelicula completa, Ken Jeong: You Complete Me, Ho (2019) NF WEB-DL Subtitulado descargar gratis, descargar Ken Jeong: You Complete Me, Ho (2019) NF WEB-DL Subtitulado pelicula latino, Ken Jeong: You Complete Me, Ho (2019) NF WEB-DL Subtitulado 1 link mega, Ken Jeong: You Complete Me, Ho (2019) NF WEB-DL Subtitulado 1 link google drive, Ken Jeong: You Complete Me, Ho (2019) NF WEB-DL Subtitulado hd 1080p latino.
Comentarios 0