×

¿Problemas para descargar con Mozilla, EDGE? Deshabilita la opción "Abrir vinculos en una pestaña nueva" tal como lo muestra ésta imagen.

Karma (2018) WEB-DL 1080p Latino

1.324 vistas

Información de Karma (2018) WEB-DL 1080p Latino

KARMAWVERTICAL

Datos de la película

  • Calidad: WEBDL
  • Audio: Español Latino AC3 2.0 DVD - Ingles AC3 5.1 iTunes
  • Subtitulos: Español Latino SRT- FORZADOS SRT
  • Resolución: 1916x1072
  • Formato: MKV
  • Codec: H.264
  • Encoder: cinemaniahdd
  • Mediainfo: Clic para Mostrar Datos Ver
  • Karma (2018) WEB-DL 1080p Latino.mkv
    Format                      : Matroska
    Format version              : Version 4
    File size                   : 3.48 GiB
    Duration                    : 1 h 25 min
    Overall bit rate            : 5 825 kb/s
    Movie name                  : Karma (2018) WEB-DL 1080p Latino
    Encoded date                : UTC 2019-05-26 19:38:50
    Writing application         : mkvmerge v22.0.0 ('At The End Of The World') 64-bit
    Writing library             : libebml v1.3.5 + libmatroska v1.4.8

    Video
    ID                          : 1
    Format                      : AVC
    Format/Info                 : Advanced Video Codec
    Format profile              : High@L4
    Format settings             : CABAC / 4 Ref Frames
    Format settings, CABAC      : Yes
    Format settings, ReFrames   : 4 frames
    Codec ID                    : V_MPEG4/ISO/AVC
    Duration                    : 1 h 25 min
    Bit rate                    : 5 182 kb/s
    Width                       : 1 916 pixels
    Height                      : 1 072 pixels
    Display aspect ratio        : 16:9
    Frame rate mode             : Constant
    Frame rate                  : 23.976 FPS
    Color space                 : YUV
    Chroma subsampling          : 4:2:0
    Bit depth                   : 8 bits
    Scan type                   : Progressive
    Bits/(Pixel*Frame)          : 0.105
    Stream size                 : 3.10 GiB (89%)
    Title                       : CinemaniaHDD
    Language                    : English
    Default                     : Yes
    Forced                      : No
    Color range                 : Limited
    Color primaries             : BT.709
    Transfer characteristics    : BT.709
    Matrix coefficients         : BT.709

    Audio #1
    ID                          : 2
    Format                      : AC-3
    Format/Info                 : Audio Coding 3
    Commercial name             : Dolby Digital
    Codec ID                    : A_AC3
    Duration                    : 1 h 25 min
    Bit rate mode               : Constant
    Bit rate                    : 256 kb/s
    Channel(s)                  : 2 channels
    Channel layout              : L R
    Sampling rate               : 48.0 kHz
    Frame rate                  : 31.250 FPS (1536 SPF)
    Bit depth                   : 16 bits
    Compression mode            : Lossy
    Delay relative to video     : -42 ms
    Stream size                 : 157 MiB (4%)
    Title                       : Español latino [CinemaniaHDD]
    Language                    : Spanish
    Service kind                : Complete Main
    Default                     : Yes
    Forced                      : No

    Audio #2
    ID                          : 3
    Format                      : AC-3
    Format/Info                 : Audio Coding 3
    Commercial name             : Dolby Digital
    Codec ID                    : A_AC3
    Duration                    : 1 h 25 min
    Bit rate mode               : Constant
    Bit rate                    : 384 kb/s
    Channel(s)                  : 6 channels
    Channel layout              : L R C LFE Ls Rs
    Sampling rate               : 48.0 kHz
    Frame rate                  : 31.250 FPS (1536 SPF)
    Bit depth                   : 16 bits
    Compression mode            : Lossy
    Delay relative to video     : -42 ms
    Stream size                 : 235 MiB (7%)
    Title                       : Inglés [CinemaniaHDD]
    Language                    : English
    Service kind                : Complete Main
    Default                     : No
    Forced                      : No

    Text #1
    ID                          : 4
    Format                      : UTF-8
    Codec ID                    : S_TEXT/UTF8
    Codec ID/Info               : UTF-8 Plain Text
    Duration                    : 54 min 33 s
    Bit rate                    : 1 b/s
    Count of elements           : 18
    Stream size                 : 593 Bytes (0%)
    Title                       : Forzados [CinemaniaHDD]
    Language                    : Spanish
    Default                     : Yes
    Forced                      : Yes

    Text #2
    ID                          : 5
    Format                      : UTF-8
    Codec ID                    : S_TEXT/UTF8
    Codec ID/Info               : UTF-8 Plain Text
    Duration                    : 1 h 21 min
    Bit rate                    : 44 b/s
    Count of elements           : 858
    Stream size                 : 26.1 KiB (0%)
    Title                       : Español latino [CinemaniaHDD]
    Language                    : Spanish
    Default                     : No
    Forced                      : No

    Menu
    00:00:00.000                : en:1
    00:04:16.839                : en:2
    00:09:03.165                : en:3
    00:14:07.301                : en:4
    00:20:42.195                : en:5
    00:24:48.608                : en:6
    00:30:46.631                : en:7
    00:35:21.696                : en:8
    00:40:06.147                : en:9
    00:48:18.179                : en:10
    00:53:33.494                : en:11
    00:59:20.340                : en:12
    01:04:59.012                : en:13
    01:10:34.721                : en:14
    01:16:22.776                : en:15
    01:22:03.323                : en:16

  • Peso: 3.48 GiB

Sinopsis

Cuando el recién graduado de la universidad, Manny, tiene problemas para sobrevivir, su suegro le ofrece un trabajo para desalojar a inquilinos delincuentes. Manny pronto se encuentra desatando un demonio karma que lo acecha a cada paso.

Ficha técnica

  • Titulo original: Karma
  • Fecha de lanzamiento: 13-10-2018
  • Director: Nick Simon
  • Género: Terror

Video trailer de la película

Enlaces de descarga

Rip de Bluray

Descargar Karma (2018) WEB-DL 1080p Latino




Aportes de DPeliculasHDmega la pass es:dpeliculashdmega.org Aportes de CinemaniaHD la pass es:cinemaniahdd.com
Guardado en : Terror

Películas relacionadas

  • Asústame (2020) HD 1080p Latino

    Asústame (2020) HD 1080p Latino

    2020
    Asústame (2020) HD 1080p Latino

    1h 44m 2020

    Descargar Asústame (2020) HD 1080p Latino. Durante un corte de energía, dos extraños cuentan historias...

    Director: Josh Ruben

    Género: Comedia

    Actores: Rebecca Drysdale

  • Asústame (2020) PLACEBO Full HD 1080p Latino

    Asústame (2020) PLACEBO Full HD 1080p Latino

    2020
    Asústame (2020) PLACEBO Full HD 1080p Latino

    1h 44m 2020

    Descargar Asústame (2020) PLACEBO Full HD 1080p Latino. Durante un corte de energía, dos extraños...

    Director: Josh Ruben

    Género: Comedia

    Actores: Rebecca Drysdale

  • Asústame (2020) REMUX 1080p Latino

    Asústame (2020) REMUX 1080p Latino

    2020
    Asústame (2020) REMUX 1080p Latino

    1h 44m 2020

    Descargar Asústame (2020) REMUX 1080p Latino. Durante un corte de energía, dos extraños cuentan historias...

    Director: Josh Ruben

    Género: Comedia

    Actores: Rebecca Drysdale

descargar Karma (2018) WEB-DL 1080p Latino WEBDL 1080p gratis, Karma (2018) WEB-DL 1080p Latino WEBDL mega 1 link, Karma (2018) WEB-DL 1080p Latino WEBDL pelicula completa, descargar Karma (2018) WEB-DL 1080p Latino WEBDL gratis en mega.

Karma (2018) WEB-DL 1080p Latino pelicula full hd, Karma (2018) WEB-DL 1080p Latino mega latino, Karma (2018) WEB-DL 1080p Latino 4k latino, Karma (2018) WEB-DL 1080p Latino pelicula completa, Karma (2018) WEB-DL 1080p Latino descargar gratis, descargar Karma (2018) WEB-DL 1080p Latino pelicula latino, Karma (2018) WEB-DL 1080p Latino 1 link mega, Karma (2018) WEB-DL 1080p Latino 1 link google drive, Karma (2018) WEB-DL 1080p Latino hd 1080p latino.
Comentarios 0