×

¿Problemas para descargar con Mozilla, EDGE? Deshabilita la opción "Abrir vinculos en una pestaña nueva" tal como lo muestra ésta imagen.

Kamp Koral: SpongeBob’s Under Years (2021) Temporada 1 P+ WEB-DL 1080p Latino

377 vistas

Información de Kamp Koral: SpongeBob’s Under Years (2021) Temporada 1 P+ WEB-DL 1080p Latino

Datos de la película

  • Calidad: WEBDL
  • Audio: Español Latino AC3 2.0 - Ingles AC3 2.0
  • Subtitulos: No
  • Resolución: 1920x1080
  • Formato: MKV
  • Codec: H.264
  • Encoder: cinemaniahdd
  • Mediainfo: Clic para Mostrar Datos Ver
  • Kamp Koral T01E01 P+ WEB-DL 1080p Latino [CNMNHDD].mkv
    Format                      : Matroska
    Format version              : Version 4
    File size                   : 762 MiB
    Duration                    : 22 min 40 s
    Overall bit rate            : 4 698 kb/s
    Movie name                  : Kamp Koral T01E01 - CinemaniaHDD.Net
    Encoded date                : UTC 2021-03-04 20:15:58
    Writing application         : mkvmerge v46.0.0 ('No Deeper Escape') 64-bit
    Writing library             : libebml v1.3.10 + libmatroska v1.5.2

    Video
    ID                          : 1
    Format                      : AVC
    Format/Info                 : Advanced Video Codec
    Format profile              : High@L4
    Format settings             : CABAC / 4 Ref Frames
    Format settings, CABAC      : Yes
    Format settings, Reference  : 4 frames
    Codec ID                    : V_MPEG4/ISO/AVC
    Duration                    : 22 min 39 s
    Bit rate                    : 4 500 kb/s
    Width                       : 1 920 pixels
    Height                      : 1 080 pixels
    Display aspect ratio        : 16:9
    Frame rate mode             : Constant
    Frame rate                  : 23.976 (24000/1001) FPS
    Color space                 : YUV
    Chroma subsampling          : 4:2:0
    Bit depth                   : 8 bits
    Scan type                   : Progressive
    Bits/(Pixel*Frame)          : 0.091
    Stream size                 : 721 MiB (95%)
    Title                       : CinemaniaHDD.Net
    Writing library             : x264 core 161 r3015 4c2aafd
    Encoding settings           : cabac=1 / ref=4 / deblock=1:0:0 / analyse=0x3:0x113 / me=hex / subme=8 / psy=1 / psy_rd=1.00:0.00 / mixed_ref=1 / me_range=16 / chroma_me=1 / trellis=2 / 8x8dct=1 / cqm=0 / deadzone=21,11 / fast_pskip=1 / chroma_qp_offset=-2 / threads=6 / lookahead_threads=1 / sliced_threads=0 / nr=0 / decimate=1 / interlaced=0 / bluray_compat=0 / stitchable=1 / constrained_intra=0 / bframes=3 / b_pyramid=2 / b_adapt=1 / b_bias=0 / direct=3 / weightb=1 / open_gop=0 / weightp=2 / keyint=48 / keyint_min=4 / scenecut=0 / intra_refresh=0 / rc_lookahead=48 / rc=2pass / mbtree=1 / bitrate=4500 / ratetol=1.0 / qcomp=0.60 / qpmin=0 / qpmax=69 / qpstep=4 / cplxblur=20.0 / qblur=0.5 / vbv_maxrate=5400 / vbv_bufsize=4500 / nal_hrd=none / filler=0 / ip_ratio=1.40 / aq=1:1.00
    Language                    : Spanish
    Default                     : Yes
    Forced                      : No

    Audio #1
    ID                          : 2
    Format                      : AAC LC
    Format/Info                 : Advanced Audio Codec Low Complexity
    Codec ID                    : A_AAC-2
    Duration                    : 22 min 40 s
    Bit rate                    : 125 kb/s
    Channel(s)                  : 2 channels
    Channel layout              : L R
    Sampling rate               : 48.0 kHz
    Frame rate                  : 46.875 FPS (1024 SPF)
    Compression mode            : Lossy
    Stream size                 : 20.2 MiB (3%)
    Title                       : Español latino [CinemaniaHDD]
    Language                    : Spanish
    Default                     : Yes
    Forced                      : Yes

    Audio #2
    ID                          : 3
    Format                      : AAC LC
    Format/Info                 : Advanced Audio Codec Low Complexity
    Codec ID                    : A_AAC-2
    Duration                    : 22 min 40 s
    Bit rate                    : 125 kb/s
    Channel(s)                  : 2 channels
    Channel layout              : L R
    Sampling rate               : 48.0 kHz
    Frame rate                  : 46.875 FPS (1024 SPF)
    Compression mode            : Lossy
    Stream size                 : 20.2 MiB (3%)
    Title                       : Inglés [CinemaniaHDD]
    Language                    : English
    Default                     : No
    Forced                      : No

     

  • Peso: 762 MiB Aprox ---- 4.50 GiB in 6 Chapters.

Sinopsis

En esta nueva aventura: Bob Esponja, Arenita, Calamardo, Patricio, Plankton y Don Cangrejo, pasan el verano construyendo fogatas bajo el agua, atrapando medusas salvajes y nadando en el lago Yucky Muck en el campamento más loco del bosque.

Ficha técnica

Video trailer de la película

Enlaces de descarga

Rip de Bluray

Descargar Kamp Koral: SpongeBob’s Under Years (2021) Temporada 1 P+ WEB-DL 1080p Latino




Aportes de DPeliculasHDmega la pass es:dpeliculashdmega.org Aportes de CinemaniaHD la pass es:cinemaniahdd.com
Guardado en : Animación , Comedia , Familia , Series

Películas relacionadas

  • Zola (2020) HD 1080p Latino

    Zola (2020) HD 1080p Latino

    2020
    Zola (2020) HD 1080p Latino

    1h 26m 2020

    Descargar Zola (2020) HD 1080p Latino. Una camarera accede a acompañar a una bailarina exótica, su...

    Director: Sheri Davani

    Género: Comedia

    Actores: Ts Madison

  • Zola (2020) PLACEBO Full HD 1080p Latino

    Zola (2020) PLACEBO Full HD 1080p Latino

    2020
    Zola (2020) PLACEBO Full HD 1080p Latino

    1h 26m 2020

    Descargar Zola (2020) PLACEBO Full HD 1080p Latino. Una camarera accede a acompañar a una bailarina...

    Director: Sheri Davani

    Género: Comedia

    Actores: Ts Madison

  • Zola (2020) REMUX 1080p Latino

    Zola (2020) REMUX 1080p Latino

    2020
    Zola (2020) REMUX 1080p Latino

    1h 26m 2020

    Descargar Zola (2020) REMUX 1080p Latino. Una camarera accede a acompañar a una bailarina exótica,...

    Director: Sheri Davani

    Género: Comedia

    Actores: Ts Madison

descargar Kamp Koral: SpongeBob’s Under Years (2021) Temporada 1 P+ WEB-DL 1080p Latino WEBDL 1080p gratis, Kamp Koral: SpongeBob’s Under Years (2021) Temporada 1 P+ WEB-DL 1080p Latino WEBDL mega 1 link, Kamp Koral: SpongeBob’s Under Years (2021) Temporada 1 P+ WEB-DL 1080p Latino WEBDL serie completa, descargar Kamp Koral: SpongeBob’s Under Years (2021) Temporada 1 P+ WEB-DL 1080p Latino WEBDL gratis en mega.

Kamp Koral: SpongeBob’s Under Years (2021) Temporada 1 P+ WEB-DL 1080p Latino pelicula full hd, Kamp Koral: SpongeBob’s Under Years (2021) Temporada 1 P+ WEB-DL 1080p Latino mega latino, Kamp Koral: SpongeBob’s Under Years (2021) Temporada 1 P+ WEB-DL 1080p Latino 4k latino, Kamp Koral: SpongeBob’s Under Years (2021) Temporada 1 P+ WEB-DL 1080p Latino pelicula completa, Kamp Koral: SpongeBob’s Under Years (2021) Temporada 1 P+ WEB-DL 1080p Latino descargar gratis, descargar Kamp Koral: SpongeBob’s Under Years (2021) Temporada 1 P+ WEB-DL 1080p Latino pelicula latino, Kamp Koral: SpongeBob’s Under Years (2021) Temporada 1 P+ WEB-DL 1080p Latino 1 link mega, Kamp Koral: SpongeBob’s Under Years (2021) Temporada 1 P+ WEB-DL 1080p Latino 1 link google drive, Kamp Koral: SpongeBob’s Under Years (2021) Temporada 1 P+ WEB-DL 1080p Latino hd 1080p latino.
Comentarios 0