×

¿Problemas para descargar con Mozilla, EDGE? Deshabilita la opción "Abrir vinculos en una pestaña nueva" tal como lo muestra ésta imagen.

Kaamelott: Premier volet (2021) REMUX 1080p Latino

36 vistas

Información de Kaamelott: Premier volet (2021) REMUX 1080p Latino

Datos de la película

  • Calidad: Full 1080p
  • Audio: Se especifica abajo de la Sinopsis
  • Subtitulos: Español Latino SRT- FORZADOS SRT
  • Resolución: 1920x1080p
  • Formato: MKV
  • Codec: H.264
  • Encoder: Melkor
  • Mediainfo: Clic para Mostrar Datos Ver
  • Kaamelott. Premier volet (2021) REMUX 1080p Latino.mkv
    Format                      : Matroska
    Format version              : Version 4
    File size                   : 29.3 GiB
    Duration                    : 2 h 0 min
    Overall bit rate mode       : Variable
    Overall bit rate            : 34.9 Mb/s
    Movie name                  : Kaamelott: Premier Volet (2021) CinemaniaHDD.Net
    Encoded date                : UTC 2022-08-26 08:09:18
    Writing application         : mkvmerge v56.1.0 ('My Friend') 64-bit
    Writing library             : libebml v1.4.2 + libmatroska v1.6.4
    Attachments                 : CINEMANIAHD.png

    Video
    ID                          : 1
    Format                      : AVC
    Format/Info                 : Advanced Video Codec
    Format profile              : High@L4.1
    Format settings             : CABAC / 4 Ref Frames
    Format settings, CABAC      : Yes
    Format settings, Reference  : 4 frames
    Codec ID                    : V_MPEG4/ISO/AVC
    Duration                    : 2 h 0 min
    Bit rate mode               : Variable
    Bit rate                    : 29.8 Mb/s
    Maximum bit rate            : 35.0 Mb/s
    Width                       : 1 920 pixels
    Height                      : 1 080 pixels
    Display aspect ratio        : 16:9
    Frame rate mode             : Constant
    Frame rate                  : 24.000 FPS
    Color space                 : YUV
    Chroma subsampling          : 4:2:0
    Bit depth                   : 8 bits
    Scan type                   : Progressive
    Bits/(Pixel*Frame)          : 0.599
    Stream size                 : 25.0 GiB (85%)
    Title                       : REMUX HD1080p [CinemaniaHDD]
    Default                     : Yes
    Forced                      : Yes

    Audio #1
    ID                          : 2
    Format                      : AC-3
    Format/Info                 : Audio Coding 3
    Commercial name             : Dolby Digital
    Codec ID                    : A_AC3
    Duration                    : 2 h 0 min
    Bit rate mode               : Constant
    Bit rate                    : 256 kb/s
    Channel(s)                  : 2 channels
    Channel layout              : L R
    Sampling rate               : 48.0 kHz
    Frame rate                  : 31.250 FPS (1536 SPF)
    Compression mode            : Lossy
    Stream size                 : 220 MiB (1%)
    Title                       : Español Latino [CinemaniaHDD]
    Language                    : Spanish
    Service kind                : Complete Main
    Default                     : Yes
    Forced                      : Yes

    Audio #2
    ID                          : 3
    Format                      : MLP FBA 16-ch
    Format/Info                 : Meridian Lossless Packing FBA with 16-channel presentation
    Commercial name             : Dolby TrueHD with Dolby Atmos
    Codec ID                    : A_TRUEHD
    Duration                    : 2 h 0 min
    Bit rate mode               : Variable
    Bit rate                    : 4 305 kb/s
    Maximum bit rate            : 7 362 kb/s
    Channel(s)                  : 8 channels
    Channel layout              : L R C LFE Ls Rs Lb Rb
    Sampling rate               : 48.0 kHz
    Frame rate                  : 1 200.000 FPS (40 SPF)
    Compression mode            : Lossless
    Stream size                 : 3.61 GiB (12%)
    Title                       : Frances [CinemaniaHDD]
    Language                    : French
    Default                     : No
    Forced                      : No
    Number of dynamic objects   : 11
    Bed channel count           : 1 channel
    Bed channel configuration   : LFE

    Audio #3
    ID                          : 4
    Format                      : AC-3
    Format/Info                 : Audio Coding 3
    Commercial name             : Dolby Digital
    Format settings             : Dolby Surround EX
    Codec ID                    : A_AC3
    Duration                    : 2 h 0 min
    Bit rate mode               : Constant
    Bit rate                    : 448 kb/s
    Channel(s)                  : 6 channels
    Channel layout              : L R C LFE Ls Rs
    Sampling rate               : 48.0 kHz
    Frame rate                  : 31.250 FPS (1536 SPF)
    Compression mode            : Lossy
    Stream size                 : 385 MiB (1%)
    Title                       : Frances AC3 [CinemaniaHDD]
    Language                    : French
    Service kind                : Complete Main
    Default                     : No
    Forced                      : No

    Text #1
    ID                          : 5
    Format                      : UTF-8
    Codec ID                    : S_TEXT/UTF8
    Codec ID/Info               : UTF-8 Plain Text
    Duration                    : 34 s 267 ms
    Bit rate                    : 16 b/s
    Count of elements           : 3
    Stream size                 : 71.0 Bytes (0%)
    Title                       : Forzados-SRT [CinemaniaHDD]
    Language                    : Spanish
    Default                     : Yes
    Forced                      : Yes

    Text #2
    ID                          : 6
    Format                      : UTF-8
    Codec ID                    : S_TEXT/UTF8
    Codec ID/Info               : UTF-8 Plain Text
    Duration                    : 1 h 54 min
    Bit rate                    : 60 b/s
    Count of elements           : 1814
    Stream size                 : 50.3 KiB (0%)
    Title                       : Español-SRT [CinemaniaHDD]
    Language                    : Spanish
    Default                     : No
    Forced                      : No

    Text #3
    ID                          : 7
    Format                      : PGS
    Muxing mode                 : zlib
    Codec ID                    : S_HDMV/PGS
    Codec ID/Info               : Picture based subtitle format used on BDs/HD-DVDs
    Duration                    : 1 h 59 min
    Bit rate                    : 51.1 kb/s
    Count of elements           : 5141
    Stream size                 : 43.8 MiB (0%)
    Title                       : Frances [CinemaniaHDD]
    Language                    : French
    Default                     : No
    Forced                      : No

    Menu
    00:00:00.000                : :Chapter 01
    00:10:17.458                : :Chapter 02
    00:19:07.000                : :Chapter 03
    00:32:05.208                : :Chapter 04
    00:39:52.917                : :Chapter 05
    00:51:16.667                : :Chapter 06
    00:59:44.333                : :Chapter 07
    01:08:53.625                : :Chapter 08
    01:19:52.208                : :Chapter 09
    01:28:34.167                : :Chapter 10
    01:36:50.458                : :Chapter 11
    01:46:05.042                : :Chapter 12

  • Peso: 29.3 GiB

Sinopsis

Descargar Kaamelott: Premier volet (2021) REMUX 1080p Latino. Tras el final de la aclamada serie de televisión, el Rey Arturo se opondrá al ejército de Lancelot para recuperar el trono después de su huida a Roma.

Español Latino AC3 2.0 Web – Frances TrueHD 7.1 & AC3 5.1 BD

Ficha técnica

Video trailer de la película

Enlaces de descarga

Rip de Bluray

Descargar Kaamelott: Premier volet (2021) REMUX 1080p Latino




Aportes de DPeliculasHDmega la pass es:dpeliculashdmega.org Aportes de CinemaniaHD la pass es:cinemaniahdd.com
Guardado en : Aventura , Comedia , Fantasía , Remux

Películas relacionadas

descargar Kaamelott: Premier volet (2021) REMUX 1080p Latino Full 1080p 1080p gratis, Kaamelott: Premier volet (2021) REMUX 1080p Latino Full 1080p mega 1 link, Kaamelott: Premier volet (2021) REMUX 1080p Latino Full 1080p pelicula completa, descargar Kaamelott: Premier volet (2021) REMUX 1080p Latino Full 1080p gratis en mega.

Kaamelott: Premier volet (2021) REMUX 1080p Latino pelicula full hd, Kaamelott: Premier volet (2021) REMUX 1080p Latino mega latino, Kaamelott: Premier volet (2021) REMUX 1080p Latino 4k latino, Kaamelott: Premier volet (2021) REMUX 1080p Latino pelicula completa, Kaamelott: Premier volet (2021) REMUX 1080p Latino descargar gratis, descargar Kaamelott: Premier volet (2021) REMUX 1080p Latino pelicula latino, Kaamelott: Premier volet (2021) REMUX 1080p Latino 1 link mega, Kaamelott: Premier volet (2021) REMUX 1080p Latino 1 link google drive, Kaamelott: Premier volet (2021) REMUX 1080p Latino hd 1080p latino.
Comentarios 0