×

¿Problemas para descargar con Mozilla, EDGE? Deshabilita la opción "Abrir vinculos en una pestaña nueva" tal como lo muestra ésta imagen.

Justicia Implacable (2021) REMUX 1080p Latino

321 vistas

Información de Justicia Implacable (2021) REMUX 1080p Latino

Datos de la película

  • Calidad: Full 1080p
  • Audio: Español Latino AC3 5.1 iTUNES - Ingles DTS 5.1 BLURAY
  • Subtitulos: Español Latino SRT- FORZADOS SRT
  • Resolución: 1920x1080p
  • Formato: MKV
  • Codec: H.264
  • Encoder: Melkor
  • Mediainfo: Clic para Mostrar Datos Ver
  • Justicia Implacable [WofM] (2021) REMUX 1080p Latino.mkv
    Format                      : Matroska
    Format version              : Version 4
    File size                   : 34.9 GiB
    Duration                    : 1 h 58 min
    Overall bit rate mode       : Variable
    Overall bit rate            : 42.0 Mb/s
    Movie name                  : Wrath of Man (2021) CinemaniaHDD.Net
    Encoded date                : UTC 2021-07-17 17:40:55
    Writing application         : mkvmerge v56.1.0 ('My Friend') 64-bit
    Writing library             : libebml v1.4.2 + libmatroska v1.6.4
    Attachments                 : CINEMANIAHD.png

    Video
    ID                          : 1
    Format                      : AVC
    Format/Info                 : Advanced Video Codec
    Format profile              : High@L4.1
    Format settings             : CABAC / 4 Ref Frames
    Format settings, CABAC      : Yes
    Format settings, Reference  : 4 frames
    Format settings, GOP        : M=3, N=12
    Codec ID                    : V_MPEG4/ISO/AVC
    Duration                    : 1 h 58 min
    Bit rate mode               : Variable
    Bit rate                    : 37.9 Mb/s
    Maximum bit rate            : 39.5 Mb/s
    Width                       : 1 920 pixels
    Height                      : 1 080 pixels
    Display aspect ratio        : 16:9
    Frame rate mode             : Constant
    Frame rate                  : 23.976 (24000/1001) FPS
    Color space                 : YUV
    Chroma subsampling          : 4:2:0
    Bit depth                   : 8 bits
    Scan type                   : Progressive
    Bits/(Pixel*Frame)          : 0.763
    Stream size                 : 31.5 GiB (90%)
    Title                       : REMUX HD1080p [CinemaniaHDD]
    Default                     : Yes
    Forced                      : No

    Audio #1
    ID                          : 2
    Format                      : AC-3
    Format/Info                 : Audio Coding 3
    Commercial name             : Dolby Digital
    Codec ID                    : A_AC3
    Duration                    : 1 h 58 min
    Bit rate mode               : Constant
    Bit rate                    : 384 kb/s
    Channel(s)                  : 6 channels
    Channel layout              : L R C LFE Ls Rs
    Sampling rate               : 48.0 kHz
    Frame rate                  : 31.250 FPS (1536 SPF)
    Compression mode            : Lossy
    Stream size                 : 327 MiB (1%)
    Title                       : Español Latino [CinemaniaHDD]
    Language                    : Spanish
    Service kind                : Complete Main
    Default                     : Yes
    Forced                      : No

    Audio #2
    ID                          : 3
    Format                      : DTS XLL
    Format/Info                 : Digital Theater Systems
    Commercial name             : DTS-HD Master Audio
    Codec ID                    : A_DTS
    Duration                    : 1 h 58 min
    Bit rate mode               : Variable
    Bit rate                    : 3 673 kb/s
    Channel(s)                  : 6 channels
    Channel layout              : C L R Ls Rs LFE
    Sampling rate               : 48.0 kHz
    Frame rate                  : 93.750 FPS (512 SPF)
    Bit depth                   : 24 bits
    Compression mode            : Lossless
    Stream size                 : 3.05 GiB (9%)
    Title                       : Ingles [CinemaniaHDD]
    Language                    : English
    Default                     : No
    Forced                      : No

    Text #1
    ID                          : 4
    Format                      : UTF-8
    Codec ID                    : S_TEXT/UTF8
    Codec ID/Info               : UTF-8 Plain Text
    Duration                    : 1 h 11 min
    Bit rate                    : 0 b/s
    Count of elements           : 11
    Stream size                 : 298 Bytes (0%)
    Title                       : Forzados-SRT [CinemaniaHDD]
    Language                    : Spanish
    Default                     : Yes
    Forced                      : No

    Text #2
    ID                          : 5
    Format                      : UTF-8
    Codec ID                    : S_TEXT/UTF8
    Codec ID/Info               : UTF-8 Plain Text
    Duration                    : 1 h 52 min
    Bit rate                    : 68 b/s
    Count of elements           : 1774
    Stream size                 : 56.9 KiB (0%)
    Title                       : Español-SRT [CinemaniaHDD]
    Language                    : Spanish
    Default                     : No
    Forced                      : No

    Text #3
    ID                          : 6
    Format                      : PGS
    Muxing mode                 : zlib
    Codec ID                    : S_HDMV/PGS
    Codec ID/Info               : Picture based subtitle format used on BDs/HD-DVDs
    Duration                    : 1 h 51 min
    Bit rate                    : 36.2 kb/s
    Count of elements           : 3020
    Stream size                 : 28.8 MiB (0%)
    Title                       : Ingles-PGS [CinemaniaHDD]
    Language                    : English
    Default                     : No
    Forced                      : No

    Menu
    00:00:00.000                : Chapter 1
    00:05:54.563                : Chapter 2
    00:13:08.121                : Chapter 3
    00:19:51.524                : Chapter 4
    00:29:30.435                : Chapter 5
    00:38:33.228                : Chapter 6
    00:47:33.684                : Chapter 7
    00:55:34.998                : Chapter 8
    01:02:41.299                : Chapter 9
    01:10:36.107                : Chapter 10
    01:19:03.530                : Chapter 11
    01:25:57.819                : Chapter 12
    01:34:15.358                : Chapter 13
    01:44:04.989                : Chapter 14
    01:53:03.485                : Chapter 15

  • Peso: 34.9 GiB

Sinopsis

Descargar Justicia Implacable [Wrath Of Man] (2021) REMUX 1080p Latino. H (Jason Statham) es el misterioso tipo que acaba de incorporarse como guardia de seguridad en una compañía de blindados. Durante un intento de atraco a su camión, sorprende a sus compañeros mostrando habilidades de un soldado profesional, dejando al resto del equipo preguntándose quién es realmente y de dónde viene. Pronto se hará claro el verdadero motivo por el cual H está buscando un ajuste de cuentas.

Ficha técnica

Video trailer de la película

Enlaces de descarga

Rip de Bluray

Descargar Justicia Implacable (2021) REMUX 1080p Latino




Aportes de DPeliculasHDmega la pass es:dpeliculashdmega.org Aportes de CinemaniaHD la pass es:cinemaniahdd.com
Guardado en : Acción , Crimen , Remux , Suspenso

Películas relacionadas

descargar Justicia Implacable (2021) REMUX 1080p Latino Full 1080p 1080p gratis, Justicia Implacable (2021) REMUX 1080p Latino Full 1080p mega 1 link, Justicia Implacable (2021) REMUX 1080p Latino Full 1080p pelicula completa, descargar Justicia Implacable (2021) REMUX 1080p Latino Full 1080p gratis en mega.

Justicia Implacable (2021) REMUX 1080p Latino pelicula full hd, Justicia Implacable (2021) REMUX 1080p Latino mega latino, Justicia Implacable (2021) REMUX 1080p Latino 4k latino, Justicia Implacable (2021) REMUX 1080p Latino pelicula completa, Justicia Implacable (2021) REMUX 1080p Latino descargar gratis, descargar Justicia Implacable (2021) REMUX 1080p Latino pelicula latino, Justicia Implacable (2021) REMUX 1080p Latino 1 link mega, Justicia Implacable (2021) REMUX 1080p Latino 1 link google drive, Justicia Implacable (2021) REMUX 1080p Latino hd 1080p latino.
Comentarios 2
  • elbilletes - 18 julio, 2021

    Hola! El enlace público me pide un username y un password y no puedo acceder a los enlaces; me podrían ayudar por favor

    • Dracarys - 18 julio, 2021

      arreglado