Justice Society World War II (2021) WEB-DL 1080p Latino – CMHDD

61 vistas
1 estrella2 estrellas3 estrellas4 estrellas5 estrellas (1 votos, promedio: 5,00 de 5)
Cargando...

Información de Justice Society World War II (2021) WEB-DL 1080p Latino – CMHDD

Datos de la película

  • Calidad: WEBDL
  • Audio: Se especifica abajo de la Sinopsis
  • Subtitulos: Español Latino SRT
  • Resolución: 1920x1080p
  • Formato: MKV
  • Codec: H.264
  • Encoder: CinemaniaHDD
  • Mediainfo: Clic para Mostrar Datos Ver
  • Format                      : Matroska
    Format version              : Version 4
    File size                   : 3.42 GiB
    Duration                    : 1 h 24 min
    Overall bit rate            : 5 806 kb/s
    Movie name                  : Justice Society  World War II (2021) WEB-DL 1080p Latino - CMHDD
    Encoded date                : UTC 2021-04-26 23:41:30
    Writing application         : mkvmerge v56.1.0 ('My Friend') 64-bit
    Writing library             : libebml v1.4.2 + libmatroska v1.6.4

    Video
    ID                          : 1
    Format                      : AVC
    Format/Info                 : Advanced Video Codec
    Format profile              : High@L4
    Format settings             : CABAC / 2 Ref Frames
    Format settings, CABAC      : Yes
    Format settings, Reference  : 2 frames
    Codec ID                    : V_MPEG4/ISO/AVC
    Duration                    : 1 h 24 min
    Bit rate                    : 5 036 kb/s
    Width                       : 1 920 pixels
    Height                      : 1 080 pixels
    Display aspect ratio        : 16:9
    Frame rate mode             : Constant
    Frame rate                  : 23.976 (24000/1001) FPS
    Color space                 : YUV
    Chroma subsampling          : 4:2:0
    Bit depth                   : 8 bits
    Scan type                   : Progressive
    Bits/(Pixel*Frame)          : 0.101
    Stream size                 : 2.96 GiB (87%)
    Writing library             : x264 core 155 r2901 7d0ff22
    Default                     : Yes
    Forced                      : No
    Color range                 : Limited
    Color primaries             : BT.709
    Transfer characteristics    : BT.709
    Matrix coefficients         : BT.709

    Audio #1
    ID                          : 2
    Format                      : AC-3
    Format/Info                 : Audio Coding 3
    Commercial name             : Dolby Digital
    Codec ID                    : A_AC3
    Duration                    : 1 h 24 min
    Bit rate mode               : Constant
    Bit rate                    : 384 kb/s
    Channel(s)                  : 6 channels
    Channel layout              : L R C LFE Ls Rs
    Sampling rate               : 48.0 kHz
    Frame rate                  : 31.250 FPS (1536 SPF)
    Compression mode            : Lossy
    Stream size                 : 231 MiB (7%)
    Language                    : English
    Service kind                : Complete Main
    Default                     : No
    Forced                      : No

    Audio #2
    ID                          : 3
    Format                      : AC-3
    Format/Info                 : Audio Coding 3
    Commercial name             : Dolby Digital
    Codec ID                    : A_AC3
    Duration                    : 1 h 24 min
    Bit rate mode               : Constant
    Bit rate                    : 384 kb/s
    Channel(s)                  : 6 channels
    Channel layout              : L R C LFE Ls Rs
    Sampling rate               : 48.0 kHz
    Frame rate                  : 31.250 FPS (1536 SPF)
    Compression mode            : Lossy
    Stream size                 : 231 MiB (7%)
    Language                    : Spanish
    Service kind                : Complete Main
    Default                     : Yes
    Forced                      : No

    Text
    ID                          : 4
    Format                      : UTF-8
    Codec ID                    : S_TEXT/UTF8
    Codec ID/Info               : UTF-8 Plain Text
    Duration                    : 1 h 23 min
    Bit rate                    : 41 b/s
    Count of elements           : 902
    Stream size                 : 25.5 KiB (0%)
    Language                    : Spanish
    Default                     : No
    Forced                      : No

  • Peso: 3.42 GiB

Sinopsis

Mientras acelera para ayudar en una batalla improvisada, Flash arde y atraviesa la barrera del tiempo, solo para encontrarse con su antecesar en medio de la Segunda Guerra Mundial. Es aquí donde Flash conoce a la Mujer Maravilla y su equipo secreto, conocido como la Sociedad de la Justicia de América. ¡Sé testigo de las furiosas mareas de la guerra, el combate apasionante y la velocidad del valor mientras Flash lucha por volver a su propia línea de tiempo!

 

Latino: AC3 5.1  – Ingles: AC3 5.1

Ficha técnica

Video trailer de la película

Enlaces de descarga

Rip de Bluray

Descargar Justice Society World War II (2021) WEB-DL 1080p Latino – CMHDD




Aportes de DPeliculasHDmega la pass es:dpeliculashdmega.org Aportes de CinemaniaHD la pass es:cinemaniahdd.com
Guardado en : Acción , Animación , Bélica , Fantasía

Películas relacionadas

Justice Society World War II (2021) WEB-DL 1080p Latino – CMHDD pelicula full hd, Justice Society World War II (2021) WEB-DL 1080p Latino – CMHDD mega latino, Justice Society World War II (2021) WEB-DL 1080p Latino – CMHDD 4k latino, Justice Society World War II (2021) WEB-DL 1080p Latino – CMHDD pelicula completa, Justice Society World War II (2021) WEB-DL 1080p Latino – CMHDD descargar gratis, descargar Justice Society World War II (2021) WEB-DL 1080p Latino – CMHDD pelicula latino, Justice Society World War II (2021) WEB-DL 1080p Latino – CMHDD 1 link mega, Justice Society World War II (2021) WEB-DL 1080p Latino – CMHDD 1 link google drive, Justice Society World War II (2021) WEB-DL 1080p Latino – CMHDD hd 1080p latino.
Comentarios 0