La Sociedad de la Justicia de América: Segunda Guerra Mundial (2021) REMUX 1080p Latino

32 vistas
1 estrella2 estrellas3 estrellas4 estrellas5 estrellas (1 votos, promedio: 5,00 de 5)
Cargando...

Información de La Sociedad de la Justicia de América: Segunda Guerra Mundial (2021) REMUX 1080p Latino

Datos de la película

  • Calidad: Full 1080p
  • Audio: Español Latino AC3 2.0 BLURAY - Ingles DTS 5.1 BLURAY
  • Subtitulos: Español Latino PGS - Ingles PGS
  • Resolución: 1920x1080p
  • Formato: MKV
  • Codec: H.264
  • Encoder: CinemaniaHD
  • Mediainfo: Clic para Mostrar Datos Ver
  • Justice Society Segunda Guerra Mundial (2021) REMUX 1080p Latino.mkv
    Format                      : Matroska
    Format version              : Version 4
    File size                   : 10.1 GiB
    Duration                    : 1 h 24 min
    Overall bit rate mode       : Variable
    Overall bit rate            : 17.2 Mb/s
    Movie name                  : Justice Society - World War II (2021) CinemaniaHDD.Net
    Encoded date                : UTC 2021-05-12 05:25:18
    Writing application         : mkvmerge v56.1.0 ('My Friend') 64-bit
    Writing library             : libebml v1.4.2 + libmatroska v1.6.4
    Attachments                 : CINEMANIAHD.png

    Video
    ID                          : 1
    ID in the original source m : 4113 (0x1011)
    Format                      : AVC
    Format/Info                 : Advanced Video Codec
    Format profile              : High@L4.1
    Format settings             : CABAC / 4 Ref Frames
    Format settings, CABAC      : Yes
    Format settings, Reference  : 4 frames
    Codec ID                    : V_MPEG4/ISO/AVC
    Duration                    : 1 h 24 min
    Bit rate mode               : Variable
    Bit rate                    : 15.0 Mb/s
    Maximum bit rate            : 40.0 Mb/s
    Width                       : 1 920 pixels
    Height                      : 1 080 pixels
    Display aspect ratio        : 16:9
    Frame rate mode             : Constant
    Frame rate                  : 23.976 (24000/1001) FPS
    Color space                 : YUV
    Chroma subsampling          : 4:2:0
    Bit depth                   : 8 bits
    Scan type                   : Progressive
    Bits/(Pixel*Frame)          : 0.302
    Stream size                 : 8.84 GiB (87%)
    Title                       : REMUX HD1080p [CinemaniaHDD]
    Default                     : Yes
    Forced                      : No
    Original source medium      : Blu-ray

    Audio #1
    ID                          : 2
    ID in the original source m : 4355 (0x1103)
    Format                      : AC-3
    Format/Info                 : Audio Coding 3
    Commercial name             : Dolby Digital
    Codec ID                    : A_AC3
    Duration                    : 1 h 24 min
    Bit rate mode               : Constant
    Bit rate                    : 192 kb/s
    Channel(s)                  : 2 channels
    Channel layout              : L R
    Sampling rate               : 48.0 kHz
    Frame rate                  : 31.250 FPS (1536 SPF)
    Compression mode            : Lossy
    Stream size                 : 116 MiB (1%)
    Title                       : Español Latino [CinemaniaHDD]
    Language                    : Spanish
    Service kind                : Complete Main
    Default                     : Yes
    Forced                      : No
    Original source medium      : Blu-ray

    Audio #2
    ID                          : 3
    ID in the original source m : 4352 (0x1100)
    Format                      : DTS XLL
    Format/Info                 : Digital Theater Systems
    Commercial name             : DTS-HD Master Audio
    Codec ID                    : A_DTS
    Duration                    : 1 h 24 min
    Bit rate mode               : Variable
    Bit rate                    : 1 943 kb/s
    Channel(s)                  : 6 channels
    Channel layout              : C L R Ls Rs LFE
    Sampling rate               : 48.0 kHz
    Frame rate                  : 93.750 FPS (512 SPF)
    Bit depth                   : 24 bits
    Compression mode            : Lossless
    Stream size                 : 1.14 GiB (11%)
    Title                       : Ingles [CinemaniaHDD]
    Language                    : English
    Default                     : No
    Forced                      : No
    Original source medium      : Blu-ray

    Text #1
    ID                          : 4
    ID in the original source m : 4611 (0x1203)
    Format                      : PGS
    Muxing mode                 : zlib
    Codec ID                    : S_HDMV/PGS
    Codec ID/Info               : Picture based subtitle format used on BDs/HD-DVDs
    Duration                    : 1 h 23 min
    Bit rate                    : 25.4 kb/s
    Count of elements           : 1804
    Stream size                 : 15.3 MiB (0%)
    Title                       : Español-PGS [CinemaniaHDD]
    Language                    : Spanish
    Default                     : No
    Forced                      : No
    Original source medium      : Blu-ray

    Text #2
    ID                          : 5
    ID in the original source m : 4608 (0x1200)
    Format                      : PGS
    Muxing mode                 : zlib
    Codec ID                    : S_HDMV/PGS
    Codec ID/Info               : Picture based subtitle format used on BDs/HD-DVDs
    Duration                    : 1 h 21 min
    Bit rate                    : 29.5 kb/s
    Count of elements           : 2160
    Stream size                 : 17.1 MiB (0%)
    Title                       : Ingles-PGS [CinemaniaHDD]
    Language                    : English
    Default                     : No
    Forced                      : No
    Original source medium      : Blu-ray

    Text #3
    ID                          : 6
    Format                      : UTF-8
    Codec ID                    : S_TEXT/UTF8
    Codec ID/Info               : UTF-8 Plain Text
    Duration                    : 25 min 6 s
    Bit rate                    : 0 b/s
    Count of elements           : 5
    Stream size                 : 152 Bytes (0%)
    Title                       : Forzados-SRT [CinemaniaHDD]
    Language                    : Spanish
    Default                     : Yes
    Forced                      : No

    Text #4
    ID                          : 7
    Format                      : UTF-8
    Codec ID                    : S_TEXT/UTF8
    Codec ID/Info               : UTF-8 Plain Text
    Duration                    : 1 h 21 min
    Bit rate                    : 43 b/s
    Count of elements           : 901
    Stream size                 : 25.7 KiB (0%)
    Title                       : Español-SRT [CinemaniaHDD]
    Language                    : Spanish
    Default                     : No
    Forced                      : No

    Menu
    00:00:00.000                : Chapter 01
    00:03:42.180                : Chapter 02
    00:09:29.110                : Chapter 03
    00:18:19.389                : Chapter 04
    00:25:29.986                : Chapter 05
    00:34:33.029                : Chapter 06
    00:42:50.192                : Chapter 07
    00:49:29.508                : Chapter 08
    00:56:53.410                : Chapter 09
    01:05:13.659                : Chapter 10
    01:14:50.861                : Chapter 11
    01:21:43.064                : Chapter 12

  • Peso: 10.1 GiB

Sinopsis

Descargar La Sociedad de la Justicia de América: Segunda Guerra Mundial (2021) REMUX 1080p Latino. Mientras acelera para ayudar en una batalla improvisada, Flash arde y atraviesa la barrera del tiempo, solo para encontrarse con su antecesar en medio de la Segunda Guerra Mundial. Es aquí donde Flash conoce a la Mujer Maravilla y su equipo secreto, conocido como la Sociedad de la Justicia de América. ¡Sé testigo de las furiosas mareas de la guerra, el combate apasionante y la velocidad del valor mientras Flash lucha por volver a su propia línea de tiempo!

Ficha técnica

Video trailer de la película

Enlaces de descarga

Rip de Bluray

Descargar La Sociedad de la Justicia de América: Segunda Guerra Mundial (2021) REMUX 1080p Latino




Aportes de DPeliculasHDmega la pass es:dpeliculashdmega.org Aportes de CinemaniaHD la pass es:cinemaniahdd.com

Películas relacionadas

  • Nadie (2021) REMUX 1080p Latino

    Nadie (2021) REMUX 1080p Latino

    2021
    Nadie (2021) REMUX 1080p Latino

    5.0 1h 32m 2021

    Descargar Nadie (2021) REMUX 1080p Latino. Hutch Mansell, un padre de familia que aguanta con resignación...

    Director: Ilya Naishuller

    Género: Acción

    Actores: Yulia Guzhva

  • Annabelle 3: Viene A Casa (2019) REMUX 1080p Latino

    Annabelle 3: Viene A Casa (2019) REMUX 1080p Latino

    2019
    Annabelle 3: Viene A Casa (2019) REMUX 1080p Latino

    5.0 1h 46m 2019

    Descargar Annabelle 3 Vuelve a casa (2019) REMUX 1080p Latino. Annabelle Vuelve a Casa es la tercera...

    Director: Gary Dauberman

    Género: Misterio

    Actores: Vera Farmiga

  • Annabelle 2: La Creación (2017) REMUX 1080p Latino

    Annabelle 2: La Creación (2017) REMUX 1080p Latino

    2017
    Annabelle 2: La Creación (2017) REMUX 1080p Latino

    3.0 1h 49m 2017

    Descargar Annabelle 2: La Creación (2017) REMUX 1080p Latino. Varios años después del trágico fallecimiento...

    Director: Jan McWilliams

    Género: Misterio

    Actores: Ward Horton

  • Annabelle (2014) REMUX 1080p Latino

    Annabelle (2014) REMUX 1080p Latino

    2014
    Annabelle (2014) REMUX 1080p Latino

    5.0 1h 38m 2014

    Descargar Annabelle (2014) REMUX 1080p Latino. John Form encuentra el regalo perfecto para su mujer embarazada,...

    Director: Sherie Giehtbrock

    Género: Remux

    Actores: Ward Horton

  • Ruega por nosotros (2021) REMUX 1080p Latino

    Ruega por nosotros (2021) REMUX 1080p Latino

    2021
    Ruega por nosotros (2021) REMUX 1080p Latino

    5.0 1h 39m 2021

    Descargar Ruega por nosotros (2021) REMUX 1080p Latino. Se centra en un periodista caído en desgracia...

    Director: Evan Spiliotopoulos

    Género: Remux

    Actores: William Sadler

La Sociedad de la Justicia de América: Segunda Guerra Mundial (2021) REMUX 1080p Latino pelicula full hd, La Sociedad de la Justicia de América: Segunda Guerra Mundial (2021) REMUX 1080p Latino mega latino, La Sociedad de la Justicia de América: Segunda Guerra Mundial (2021) REMUX 1080p Latino 4k latino, La Sociedad de la Justicia de América: Segunda Guerra Mundial (2021) REMUX 1080p Latino pelicula completa, La Sociedad de la Justicia de América: Segunda Guerra Mundial (2021) REMUX 1080p Latino descargar gratis, descargar La Sociedad de la Justicia de América: Segunda Guerra Mundial (2021) REMUX 1080p Latino pelicula latino, La Sociedad de la Justicia de América: Segunda Guerra Mundial (2021) REMUX 1080p Latino 1 link mega, La Sociedad de la Justicia de América: Segunda Guerra Mundial (2021) REMUX 1080p Latino 1 link google drive, La Sociedad de la Justicia de América: Segunda Guerra Mundial (2021) REMUX 1080p Latino hd 1080p latino.
Comentarios 0