Justice Society World War II (2021) REMUX 4K HDR Latino – CMHDD

46 vistas
1 estrella2 estrellas3 estrellas4 estrellas5 estrellas (Ninguna valoración todavía)
Cargando...

Información de Justice Society World War II (2021) REMUX 4K HDR Latino – CMHDD

Datos de la película

  • Calidad: 4K HDR
  • Audio: Español Latino AC3 2.0 BLURAY - Ingles DTS 5.1 BLURAY
  • Subtitulos: Español Latino SRT
  • Resolución: 3840x2160p
  • Formato: MKV
  • Codec: H.264
  • Encoder: Dracarys
  • Mediainfo: Clic para Mostrar Datos Ver
  • Format                      : Matroska
    Format version              : Version 4
    File size                   : 30.7 GiB
    Duration                    : 1 h 24 min
    Overall bit rate mode       : Variable
    Overall bit rate            : 52.2 Mb/s
    Movie name                  : Justice Society  World War II (2021) REMUX 4K HDR Latino - CMHDD
    Encoded date                : UTC 2021-05-07 21:28:24
    Writing application         : mkvmerge v56.1.0 ('My Friend') 64-bit
    Writing library             : libebml v1.4.2 + libmatroska v1.6.4
    Cover                       : Yes
    Attachments                 : cover.jpg / cover.jpg

    Video
    ID                          : 1
    ID in the original source m : 4113 (0x1011)
    Format                      : HEVC
    Format/Info                 : High Efficiency Video Coding
    Format profile              : Main 10@L5.1@High
    HDR format                  : SMPTE ST 2086, HDR10 compatible
    Codec ID                    : V_MPEGH/ISO/HEVC
    Duration                    : 1 h 24 min
    Bit rate                    : 50.0 Mb/s
    Width                       : 3 840 pixels
    Height                      : 2 160 pixels
    Display aspect ratio        : 16:9
    Frame rate mode             : Constant
    Frame rate                  : 23.976 (24000/1001) FPS
    Color space                 : YUV
    Chroma subsampling          : 4:2:0 (Type 2)
    Bit depth                   : 10 bits
    Bits/(Pixel*Frame)          : 0.252
    Stream size                 : 29.5 GiB (96%)
    Writing library             : ATEME Titan File 3.9.6 (4.9.6.2)        
    Default                     : Yes
    Forced                      : No
    Color range                 : Limited
    Color primaries             : BT.2020
    Transfer characteristics    : PQ
    Matrix coefficients         : BT.2020 non-constant
    Mastering display color pri : BT.2020
    Mastering display luminance : min: 0.0050 cd/m2, max: 4000 cd/m2
    Maximum Content Light Level : 291 cd/m2
    Maximum Frame-Average Light : 174 cd/m2
    Original source medium      : Blu-ray

    Audio #1
    ID                          : 2
    ID in the original source m : 4352 (0x1100)
    Format                      : DTS XLL
    Format/Info                 : Digital Theater Systems
    Commercial name             : DTS-HD Master Audio
    Codec ID                    : A_DTS
    Duration                    : 1 h 24 min
    Bit rate mode               : Variable
    Bit rate                    : 1 943 kb/s
    Channel(s)                  : 6 channels
    Channel layout              : C L R Ls Rs LFE
    Sampling rate               : 48.0 kHz
    Frame rate                  : 93.750 FPS (512 SPF)
    Bit depth                   : 24 bits
    Compression mode            : Lossless
    Stream size                 : 1.14 GiB (4%)
    Language                    : English
    Default                     : No
    Forced                      : No
    Original source medium      : Blu-ray

    Audio #2
    ID                          : 3
    ID in the original source m : 4353 (0x1101)
    Format                      : AC-3
    Format/Info                 : Audio Coding 3
    Commercial name             : Dolby Digital
    Codec ID                    : A_AC3
    Duration                    : 1 h 24 min
    Bit rate mode               : Constant
    Bit rate                    : 192 kb/s
    Channel(s)                  : 2 channels
    Channel layout              : L R
    Sampling rate               : 48.0 kHz
    Frame rate                  : 31.250 FPS (1536 SPF)
    Compression mode            : Lossy
    Stream size                 : 116 MiB (0%)
    Language                    : Spanish
    Service kind                : Complete Main
    Default                     : Yes
    Forced                      : No
    Original source medium      : Blu-ray

    Text #1
    ID                          : 4
    Format                      : UTF-8
    Codec ID                    : S_TEXT/UTF8
    Codec ID/Info               : UTF-8 Plain Text
    Duration                    : 1 h 23 min
    Bit rate                    : 41 b/s
    Count of elements           : 902
    Stream size                 : 25.5 KiB (0%)
    Default                     : No
    Forced                      : No

    Text #2
    ID                          : 5
    ID in the original source m : 4769 (0x12A1)
    Format                      : PGS
    Muxing mode                 : zlib
    Codec ID                    : S_HDMV/PGS
    Codec ID/Info               : Picture based subtitle format used on BDs/HD-DVDs
    Duration                    : 1 h 23 min
    Bit rate                    : 24.9 kb/s
    Count of elements           : 1802
    Stream size                 : 14.9 MiB (0%)
    Language                    : French
    Default                     : No
    Forced                      : No
    Original source medium      : Blu-ray

    Menu
    00:00:00.000                : Chapter 01
    00:03:42.180                : Chapter 02
    00:09:29.110                : Chapter 03
    00:18:19.389                : Chapter 04
    00:25:29.986                : Chapter 05
    00:34:33.029                : Chapter 06
    00:42:50.192                : Chapter 07
    00:49:29.508                : Chapter 08
    00:56:53.410                : Chapter 09
    01:05:13.659                : Chapter 10
    01:14:50.861                : Chapter 11
    01:21:43.064                : Chapter 12

  • Peso: 30.7 GiB

Sinopsis

Mientras acelera para ayudar en una batalla improvisada, Flash arde y atraviesa la barrera del tiempo, solo para encontrarse con su antecesar en medio de la Segunda Guerra Mundial. Es aquí donde Flash conoce a la Mujer Maravilla y su equipo secreto, conocido como la Sociedad de la Justicia de América. ¡Sé testigo de las furiosas mareas de la guerra, el combate apasionante y la velocidad del valor mientras Flash lucha por volver a su propia línea de tiempo!

Ficha técnica

Video trailer de la película

Enlaces de descarga

Rip de Bluray

Descargar Justice Society World War II (2021) REMUX 4K HDR Latino – CMHDD


Aportes de DPeliculasHDmega la pass es:dpeliculashdmega.org Aportes de CinemaniaHD la pass es:cinemaniahdd.com

Películas relacionadas

Justice Society World War II (2021) REMUX 4K HDR Latino – CMHDD pelicula full hd, Justice Society World War II (2021) REMUX 4K HDR Latino – CMHDD mega latino, Justice Society World War II (2021) REMUX 4K HDR Latino – CMHDD 4k latino, Justice Society World War II (2021) REMUX 4K HDR Latino – CMHDD pelicula completa, Justice Society World War II (2021) REMUX 4K HDR Latino – CMHDD descargar gratis, descargar Justice Society World War II (2021) REMUX 4K HDR Latino – CMHDD pelicula latino, Justice Society World War II (2021) REMUX 4K HDR Latino – CMHDD 1 link mega, Justice Society World War II (2021) REMUX 4K HDR Latino – CMHDD 1 link google drive, Justice Society World War II (2021) REMUX 4K HDR Latino – CMHDD hd 1080p latino.
Comentarios 0