La Sociedad de la Justicia de América: Segunda Guerra Mundial (2021) HD 1080p Latino

36 vistas
1 estrella2 estrellas3 estrellas4 estrellas5 estrellas (Ninguna valoración todavía)
Cargando...

Información de La Sociedad de la Justicia de América: Segunda Guerra Mundial (2021) HD 1080p Latino

Datos de la película

  • Calidad: 1080p
  • Audio: Español Latino AC3 2.0 BLURAY - Ingles AC3 5.1 BLURAY
  • Subtitulos: Español Latino SRT - Ingles SRT
  • Resolución: 1920x1080p
  • Formato: MKV
  • Codec: H.264
  • Encoder: CinemaniaHD
  • Mediainfo: Clic para Mostrar Datos Ver
  • Justice Society Segunda Guerra Mundial (2021) HD 1080p Latino.mkv
    Format                      : Matroska
    Format version              : Version 4
    File size                   : 2.45 GiB
    Duration                    : 1 h 24 min
    Overall bit rate            : 4 160 kb/s
    Movie name                  : Justice Society - World War II (2021) CinemaniaHDD.Net
    Encoded date                : UTC 2021-05-12 05:35:54
    Writing application         : mkvmerge v56.1.0 ('My Friend') 64-bit
    Writing library             : libebml v1.4.2 + libmatroska v1.6.4
    Attachments                 : CINEMANIAHD.png

    Video
    ID                          : 1
    Format                      : AVC
    Format/Info                 : Advanced Video Codec
    Format profile              : High@L4.1
    Format settings             : CABAC / 4 Ref Frames
    Format settings, CABAC      : Yes
    Format settings, Reference  : 4 frames
    Codec ID                    : V_MPEG4/ISO/AVC
    Duration                    : 1 h 24 min
    Bit rate                    : 3 500 kb/s
    Width                       : 1 920 pixels
    Height                      : 1 080 pixels
    Display aspect ratio        : 16:9
    Frame rate mode             : Constant
    Frame rate                  : 23.976 (24000/1001) FPS
    Color space                 : YUV
    Chroma subsampling          : 4:2:0
    Bit depth                   : 8 bits
    Scan type                   : Progressive
    Bits/(Pixel*Frame)          : 0.070
    Stream size                 : 2.07 GiB (85%)
    Title                       : HD1080p [CinemaniaHDD]
    Writing library             : x264 core 157 r2935 545de2f
    Encoding settings           : cabac=1 / ref=4 / deblock=1:1:1 / analyse=0x3:0x133 / me=umh / subme=9 / psy=1 / psy_rd=0.40:0.00 / mixed_ref=1 / me_range=16 / chroma_me=1 / trellis=2 / 8x8dct=1 / cqm=0 / deadzone=21,11 / fast_pskip=1 / chroma_qp_offset=-2 / threads=24 / lookahead_threads=2 / sliced_threads=0 / nr=0 / decimate=1 / interlaced=0 / bluray_compat=0 / constrained_intra=0 / bframes=5 / b_pyramid=2 / b_adapt=2 / b_bias=0 / direct=3 / weightb=1 / open_gop=0 / weightp=2 / keyint=240 / keyint_min=24 / scenecut=40 / intra_refresh=0 / rc_lookahead=60 / rc=abr / mbtree=1 / bitrate=3500 / ratetol=1.0 / qcomp=0.60 / qpmin=0 / qpmax=69 / qpstep=4 / vbv_maxrate=62500 / vbv_bufsize=78125 / nal_hrd=none / filler=0 / ip_ratio=1.40 / aq=1:0.60
    Default                     : Yes
    Forced                      : No
    Color range                 : Limited
    Color primaries             : BT.709
    Transfer characteristics    : BT.709
    Matrix coefficients         : BT.709

    Audio #1
    ID                          : 2
    ID in the original source m : 4355 (0x1103)
    Format                      : AC-3
    Format/Info                 : Audio Coding 3
    Commercial name             : Dolby Digital
    Codec ID                    : A_AC3
    Duration                    : 1 h 24 min
    Bit rate mode               : Constant
    Bit rate                    : 192 kb/s
    Channel(s)                  : 2 channels
    Channel layout              : L R
    Sampling rate               : 48.0 kHz
    Frame rate                  : 31.250 FPS (1536 SPF)
    Compression mode            : Lossy
    Delay relative to video     : -5 ms
    Stream size                 : 116 MiB (5%)
    Title                       : Español Latino [CinemaniaHDD]
    Language                    : Spanish
    Service kind                : Complete Main
    Default                     : Yes
    Forced                      : No
    Original source medium      : Blu-ray

    Audio #2
    ID                          : 3
    Format                      : AC-3
    Format/Info                 : Audio Coding 3
    Commercial name             : Dolby Digital
    Codec ID                    : A_AC3
    Duration                    : 1 h 24 min
    Bit rate mode               : Constant
    Bit rate                    : 448 kb/s
    Channel(s)                  : 6 channels
    Channel layout              : L R C LFE Ls Rs
    Sampling rate               : 48.0 kHz
    Frame rate                  : 31.250 FPS (1536 SPF)
    Compression mode            : Lossy
    Delay relative to video     : -5 ms
    Stream size                 : 270 MiB (11%)
    Title                       : Ingles [CinemaniaHDD]
    Language                    : English
    Service kind                : Complete Main
    Default                     : No
    Forced                      : No

    Text #1
    ID                          : 4
    Format                      : UTF-8
    Codec ID                    : S_TEXT/UTF8
    Codec ID/Info               : UTF-8 Plain Text
    Duration                    : 25 min 6 s
    Bit rate                    : 0 b/s
    Count of elements           : 5
    Stream size                 : 152 Bytes (0%)
    Title                       : Forzados-SRT [CinemaniaHDD]
    Language                    : Spanish
    Default                     : Yes
    Forced                      : No

    Text #2
    ID                          : 5
    Format                      : UTF-8
    Codec ID                    : S_TEXT/UTF8
    Codec ID/Info               : UTF-8 Plain Text
    Duration                    : 1 h 21 min
    Bit rate                    : 43 b/s
    Count of elements           : 901
    Stream size                 : 25.7 KiB (0%)
    Title                       : Español-SRT [CinemaniaHDD]
    Language                    : Spanish
    Default                     : No
    Forced                      : No

    Text #3
    ID                          : 6
    Format                      : UTF-8
    Codec ID                    : S_TEXT/UTF8
    Codec ID/Info               : UTF-8 Plain Text
    Duration                    : 1 h 21 min
    Bit rate                    : 41 b/s
    Count of elements           : 932
    Stream size                 : 24.5 KiB (0%)
    Title                       : Ingles-SRT [CinemaniaHDD]
    Language                    : English
    Default                     : No
    Forced                      : No

    Menu
    00:00:00.000                : Chapter 01
    00:03:42.180                : Chapter 02
    00:09:29.110                : Chapter 03
    00:18:19.389                : Chapter 04
    00:25:29.986                : Chapter 05
    00:34:33.029                : Chapter 06
    00:42:50.192                : Chapter 07
    00:49:29.508                : Chapter 08
    00:56:53.410                : Chapter 09
    01:05:13.659                : Chapter 10
    01:14:50.861                : Chapter 11
    01:21:43.064                : Chapter 12

  • Peso: 2.45 GiB

Sinopsis

Descargar La Sociedad de la Justicia de América: Segunda Guerra Mundial (2021) HD 1080p Latino. Mientras acelera para ayudar en una batalla improvisada, Flash arde y atraviesa la barrera del tiempo, solo para encontrarse con su antecesar en medio de la Segunda Guerra Mundial. Es aquí donde Flash conoce a la Mujer Maravilla y su equipo secreto, conocido como la Sociedad de la Justicia de América. ¡Sé testigo de las furiosas mareas de la guerra, el combate apasionante y la velocidad del valor mientras Flash lucha por volver a su propia línea de tiempo!

Ficha técnica

Video trailer de la película

Enlaces de descarga

Rip de Bluray

Descargar La Sociedad de la Justicia de América: Segunda Guerra Mundial (2021) HD 1080p Latino




Aportes de DPeliculasHDmega la pass es:dpeliculashdmega.org Aportes de CinemaniaHD la pass es:cinemaniahdd.com

Películas relacionadas

  • Ruega por nosotros (2021) HD 1080p Latino

    Ruega por nosotros (2021) HD 1080p Latino

    2021
    Ruega por nosotros (2021) HD 1080p Latino

    5.0 1h 39m 2021

    Descargar Ruega por nosotros (2021) HD 1080p Latino. Se centra en un periodista caído en desgracia que...

    Director: Evan Spiliotopoulos

    Género: HD 1080p

    Actores: William Sadler

  • Godzilla vs Kong (2021) REMUX 4K HDR Latino – CMHDD

    Godzilla vs Kong (2021) REMUX 4K HDR Latino – CMHDD

    2021
    Godzilla vs Kong (2021) REMUX 4K HDR Latino – CMHDD

    5.0 1h 53m 2021

    Godzilla y Kong, dos de las fuerzas más poderosas de un planeta habitado por todo tipo de aterradoras...

    Director: Thomas Robinson Harper

    Género: Acción

    Actores: Victoria Liu

  • Juega Conmigo (2021) HD 1080p Latino

    Juega Conmigo (2021) HD 1080p Latino

    2021
    Juega Conmigo (2021) HD 1080p Latino

    0.0 1h 20m 2021

    Descargar Juega Conmigo (2021) HD 1080p Latino. Sofía, una joven insegura, comienza a trabajar en una...

    Director: Adrián García Bogliano

    Género: HD 1080p

    Actores: Valery Sais

La Sociedad de la Justicia de América: Segunda Guerra Mundial (2021) HD 1080p Latino pelicula full hd, La Sociedad de la Justicia de América: Segunda Guerra Mundial (2021) HD 1080p Latino mega latino, La Sociedad de la Justicia de América: Segunda Guerra Mundial (2021) HD 1080p Latino 4k latino, La Sociedad de la Justicia de América: Segunda Guerra Mundial (2021) HD 1080p Latino pelicula completa, La Sociedad de la Justicia de América: Segunda Guerra Mundial (2021) HD 1080p Latino descargar gratis, descargar La Sociedad de la Justicia de América: Segunda Guerra Mundial (2021) HD 1080p Latino pelicula latino, La Sociedad de la Justicia de América: Segunda Guerra Mundial (2021) HD 1080p Latino 1 link mega, La Sociedad de la Justicia de América: Segunda Guerra Mundial (2021) HD 1080p Latino 1 link google drive, La Sociedad de la Justicia de América: Segunda Guerra Mundial (2021) HD 1080p Latino hd 1080p latino.
Comentarios 0