×

¿Problemas para descargar con Mozilla, EDGE? Deshabilita la opción "Abrir vinculos en una pestaña nueva" tal como lo muestra ésta imagen.

Buscando justicia (2019) REMUX 1080p Latino

542 vistas

Información de Buscando justicia (2019) REMUX 1080p Latino

Datos de la película

  • Calidad: Full 1080p
  • Audio: Se especifica abajo de la Sinopsis
  • Subtitulos: Español Latino SRT- FORZADOS SRT
  • Resolución: 1920x1080p
  • Formato: MKV
  • Codec: H.264
  • Encoder: Melkor
  • Mediainfo: Clic para Mostrar Datos Ver
  • Buscando Justicia (2019) REMUX 1080p Latino.mkv
    Format                      : Matroska
    Format version              : Version 4
    File size                   : 30.6 GiB
    Duration                    : 2 h 17 min
    Overall bit rate mode       : Variable
    Overall bit rate            : 32.0 Mb/s
    Movie name                  : Just Mercy (2019) CinemaniaHDD.Net
    Encoded date                : UTC 2020-04-03 09:12:06
    Writing application         : mkvmerge v42.0.0 ('Overtime') 64-bit
    Writing library             : libebml v1.3.10 + libmatroska v1.5.2
    Attachments                 : CINEMANIAHD.png

    Video
    ID                          : 1
    Format                      : AVC
    Format/Info                 : Advanced Video Codec
    Format profile              : High@L4.1
    Format settings             : CABAC / 4 Ref Frames
    Format settings, CABAC      : Yes
    Format settings, ReFrames   : 4 frames
    Codec ID                    : V_MPEG4/ISO/AVC
    Duration                    : 2 h 17 min
    Bit rate mode               : Variable
    Bit rate                    : 27.3 Mb/s
    Maximum bit rate            : 30.0 Mb/s
    Width                       : 1 920 pixels
    Height                      : 1 080 pixels
    Display aspect ratio        : 16:9
    Frame rate mode             : Constant
    Frame rate                  : 23.976 (24000/1001) FPS
    Color space                 : YUV
    Chroma subsampling          : 4:2:0
    Bit depth                   : 8 bits
    Scan type                   : Progressive
    Bits/(Pixel*Frame)          : 0.550
    Stream size                 : 26.2 GiB (85%)
    Title                       : REMUX 1080p [CinemaniaHDD]
    Default                     : Yes
    Forced                      : Yes

    Audio #1
    ID                          : 2
    Format                      : AC-3
    Format/Info                 : Audio Coding 3
    Commercial name             : Dolby Digital
    Codec ID                    : A_AC3
    Duration                    : 2 h 17 min
    Bit rate mode               : Constant
    Bit rate                    : 640 kb/s
    Channel(s)                  : 6 channels
    Channel layout              : L R C LFE Ls Rs
    Sampling rate               : 48.0 kHz
    Frame rate                  : 31.250 FPS (1536 SPF)
    Bit depth                   : 16 bits
    Compression mode            : Lossy
    Stream size                 : 627 MiB (2%)
    Title                       : Español Latino [CinemaniaHDD]
    Language                    : Spanish
    Service kind                : Complete Main
    Default                     : Yes
    Forced                      : Yes

    Audio #2
    ID                          : 3
    Format                      : MLP FBA 16-ch
    Format/Info                 : Meridian Lossless Packing FBA with 16-channel presentation
    Commercial name             : Dolby TrueHD with Dolby Atmos
    Codec ID                    : A_TRUEHD
    Duration                    : 2 h 17 min
    Bit rate mode               : Variable
    Bit rate                    : 3 287 kb/s
    Maximum bit rate            : 5 004 kb/s
    Channel(s)                  : 8 channels
    Channel layout              : L R C LFE Ls Rs Lb Rb
    Sampling rate               : 48.0 kHz
    Frame rate                  : 1 200.000 FPS (40 SPF)
    Compression mode            : Lossless
    Delay relative to video     : 1 ms
    Stream size                 : 3.15 GiB (10%)
    Title                       : Ingles [CinemaniaHDD]
    Language                    : English
    Default                     : No
    Forced                      : No
    Number of dynamic objects   : 15
    Bed channel count           : 1 channel
    Bed channel configuration   : LFE

    Audio #3
    ID                          : 4
    Format                      : AC-3
    Format/Info                 : Audio Coding 3
    Commercial name             : Dolby Digital
    Codec ID                    : A_AC3
    Duration                    : 2 h 17 min
    Bit rate mode               : Constant
    Bit rate                    : 640 kb/s
    Channel(s)                  : 6 channels
    Channel layout              : L R C LFE Ls Rs
    Sampling rate               : 48.0 kHz
    Frame rate                  : 31.250 FPS (1536 SPF)
    Bit depth                   : 16 bits
    Compression mode            : Lossy
    Delay relative to video     : 1 ms
    Stream size                 : 627 MiB (2%)
    Title                       : Ingles [CinemaniaHDD]
    Language                    : English
    Service kind                : Complete Main
    Default                     : No
    Forced                      : No

    Text #1
    ID                          : 5
    Format                      : PGS
    Muxing mode                 : zlib
    Codec ID                    : S_HDMV/PGS
    Codec ID/Info               : Picture based subtitle format used on BDs/HD-DVDs
    Duration                    : 2 h 6 min
    Bit rate                    : 1 255 b/s
    Count of elements           : 88
    Stream size                 : 1.13 MiB (0%)
    Title                       : Forzados-PGS [CinemaniaHDD]
    Language                    : Spanish
    Default                     : Yes
    Forced                      : Yes

    Text #2
    ID                          : 6
    Format                      : PGS
    Muxing mode                 : zlib
    Codec ID                    : S_HDMV/PGS
    Codec ID/Info               : Picture based subtitle format used on BDs/HD-DVDs
    Duration                    : 2 h 16 min
    Bit rate                    : 38.2 kb/s
    Count of elements           : 3362
    Stream size                 : 37.2 MiB (0%)
    Title                       : Español-PGS [CinemaniaHDD]
    Language                    : Spanish
    Default                     : No
    Forced                      : No

    Text #3
    ID                          : 7
    Format                      : UTF-8
    Codec ID                    : S_TEXT/UTF8
    Codec ID/Info               : UTF-8 Plain Text
    Duration                    : 2 h 6 min
    Bit rate                    : 2 b/s
    Count of elements           : 44
    Stream size                 : 1.93 KiB (0%)
    Title                       : Forzados-SRT [CinemaniaHDD]
    Language                    : Spanish
    Default                     : No
    Forced                      : No

    Text #4
    ID                          : 8
    Format                      : UTF-8
    Codec ID                    : S_TEXT/UTF8
    Codec ID/Info               : UTF-8 Plain Text
    Duration                    : 2 h 16 min
    Bit rate                    : 63 b/s
    Count of elements           : 1681
    Stream size                 : 63.7 KiB (0%)
    Title                       : Español-SRT [CinemaniaHDD]
    Language                    : Spanish
    Default                     : No
    Forced                      : No

    Menu
    00:00:00.000                : :Chapter 1
    00:09:09.632                : :Chapter 2
    00:17:47.275                : :Chapter 3
    00:28:31.418                : :Chapter 4
    00:34:24.980                : :Chapter 5
    00:44:16.863                : :Chapter 6
    00:53:57.025                : :Chapter 7
    01:01:16.298                : :Chapter 8
    01:10:44.907                : :Chapter 9
    01:14:59.996                : :Chapter 10
    01:23:08.484                : :Chapter 11
    01:29:11.805                : :Chapter 12
    01:39:12.155                : :Chapter 13
    01:46:44.273                : :Chapter 14
    01:54:45.545                : :Chapter 15
    02:04:18.201                : :Chapter 16
    02:10:16.726                : :Chapter 17

  • Peso: 30.6 GiB

Sinopsis

Descargar Buscando justicia (2019) REMUX 1080p Latino. Cuenta la historia real del joven abogado Bryan Stevenson (Jordan) y de su histórica batalla por la justicia. Después de licenciarse en Harvard, Bryan recibe ofertas de trabajo muy lucrativas. Pero él prefiere poner rumbo a Alabama para defender a personas que han sido condenadas erróneamente o que carecían de recursos para tener una representación legal adecuada, y lo hace con el apoyo de la activista local Eva Ansley (Larson). Uno de sus primeros y más turbulentos casos es el de Walter McMillian (Foxx), que en 1987 fue sentenciado a la pena muerte por el asesinato de una chica de 18 años, a pesar de que las pruebas demostraban ostensiblemente su inocencia. En los años posteriores, Bryan se ve envuelto en un laberinto de maniobras legales y políticas y de un racismo abierto y descarado mientras lucha por Walter y otros como él, a pesar de tenerlo todo en su contra, incluido el sistema legal.

Audio Español Latino AC3 5.1 Bluray – Ingles TrueHD 7.1 + AC3 5.1 Bluray

Ficha técnica

Video trailer de la película

Enlaces de descarga

Rip de Bluray

Descargar Buscando justicia (2019) REMUX 1080p Latino




Aportes de DPeliculasHDmega la pass es:dpeliculashdmega.org Aportes de CinemaniaHD la pass es:cinemaniahdd.com
Guardado en : Drama , Remux

Películas relacionadas

descargar Buscando justicia (2019) REMUX 1080p Latino Full 1080p 1080p gratis, Buscando justicia (2019) REMUX 1080p Latino Full 1080p mega 1 link, Buscando justicia (2019) REMUX 1080p Latino Full 1080p pelicula completa, descargar Buscando justicia (2019) REMUX 1080p Latino Full 1080p gratis en mega.

Buscando justicia (2019) REMUX 1080p Latino pelicula full hd, Buscando justicia (2019) REMUX 1080p Latino mega latino, Buscando justicia (2019) REMUX 1080p Latino 4k latino, Buscando justicia (2019) REMUX 1080p Latino pelicula completa, Buscando justicia (2019) REMUX 1080p Latino descargar gratis, descargar Buscando justicia (2019) REMUX 1080p Latino pelicula latino, Buscando justicia (2019) REMUX 1080p Latino 1 link mega, Buscando justicia (2019) REMUX 1080p Latino 1 link google drive, Buscando justicia (2019) REMUX 1080p Latino hd 1080p latino.
Comentarios 0