Just Married (2003) REMUX 1080p Latino – CMHDD

11 vistas
1 estrella2 estrellas3 estrellas4 estrellas5 estrellas (Ninguna valoración todavía)
Cargando…

Información de Just Married (2003) REMUX 1080p Latino – CMHDD

Datos de la película

  • Calidad: Full 1080p
  • Audio: Español Latino AC3 5.1 BLURAY - Ingles DTS 5.1 BLURAY
  • Subtitulos: Español Latino SRT- FORZADOS SRT
  • Resolución: 1920x1080p
  • Formato: MKV
  • Codec: H.264
  • Encoder: Dracarys
  • Mediainfo: Clic para Mostrar Datos Ver
  • Format                      : Matroska
    Format version              : Version 4
    File size                   : 23.9 GiB
    Duration                    : 1 h 34 min
    Overall bit rate mode       : Variable
    Overall bit rate            : 36.1 Mb/s
    Movie name                  : Just Married (2003) REMUX 1080p Latino - CMHDD
    Encoded date                : UTC 2020-07-25 23:59:26
    Writing application         : mkvmerge v46.0.0 ('No Deeper Escape') 64-bit
    Writing library             : libebml v1.3.10 + libmatroska v1.5.2

    Video
    ID                          : 1
    Format                      : AVC
    Format/Info                 : Advanced Video Codec
    Format profile              : High@L4.1
    Format settings             : CABAC / 4 Ref Frames
    Format settings, CABAC      : Yes
    Format settings, Reference  : 4 frames
    Codec ID                    : V_MPEG4/ISO/AVC
    Duration                    : 1 h 34 min
    Bit rate mode               : Variable
    Bit rate                    : 31.8 Mb/s
    Maximum bit rate            : 33.0 Mb/s
    Width                       : 1 920 pixels
    Height                      : 1 080 pixels
    Display aspect ratio        : 16:9
    Frame rate mode             : Constant
    Frame rate                  : 23.976 (24000/1001) FPS
    Color space                 : YUV
    Chroma subsampling          : 4:2:0
    Bit depth                   : 8 bits
    Scan type                   : Progressive
    Bits/(Pixel*Frame)          : 0.639
    Stream size                 : 21.0 GiB (88%)
    Default                     : Yes
    Forced                      : No

    Audio #1
    ID                          : 2
    Format                      : AC-3
    Format/Info                 : Audio Coding 3
    Commercial name             : Dolby Digital
    Codec ID                    : A_AC3
    Duration                    : 1 h 34 min
    Bit rate mode               : Constant
    Bit rate                    : 448 kb/s
    Channel(s)                  : 6 channels
    Channel layout              : L R C LFE Ls Rs
    Sampling rate               : 48.0 kHz
    Frame rate                  : 31.250 FPS (1536 SPF)
    Compression mode            : Lossy
    Stream size                 : 304 MiB (1%)
    Language                    : Spanish
    Service kind                : Complete Main
    Default                     : Yes
    Forced                      : No

    Audio #2
    ID                          : 3
    Format                      : DTS XLL
    Format/Info                 : Digital Theater Systems
    Commercial name             : DTS-HD Master Audio
    Codec ID                    : A_DTS
    Duration                    : 1 h 34 min
    Bit rate mode               : Variable
    Bit rate                    : 3 858 kb/s
    Channel(s)                  : 6 channels
    Channel layout              : C L R Ls Rs LFE
    Sampling rate               : 48.0 kHz
    Frame rate                  : 93.750 FPS (512 SPF)
    Bit depth                   : 24 bits
    Compression mode            : Lossless
    Stream size                 : 2.55 GiB (11%)
    Language                    : English
    Default                     : No
    Forced                      : No

    Text #1
    ID                          : 4
    Format                      : UTF-8
    Codec ID                    : S_TEXT/UTF8
    Codec ID/Info               : UTF-8 Plain Text
    Duration                    : 1 h 34 min
    Bit rate                    : 50 b/s
    Count of elements           : 1081
    Stream size                 : 35.1 KiB (0%)
    Language                    : Spanish
    Default                     : No
    Forced                      : No

    Text #2
    ID                          : 5
    Format                      : UTF-8
    Codec ID                    : S_TEXT/UTF8
    Codec ID/Info               : UTF-8 Plain Text
    Duration                    : 1 h 31 min
    Bit rate                    : 0 b/s
    Count of elements           : 5
    Stream size                 : 65.0 Bytes (0%)
    Title                       : Forzados
    Language                    : Spanish
    Default                     : Yes
    Forced                      : No

    Text #3
    ID                          : 6
    Format                      : PGS
    Muxing mode                 : zlib
    Codec ID                    : S_HDMV/PGS
    Codec ID/Info               : Picture based subtitle format used on BDs/HD-DVDs
    Duration                    : 1 h 34 min
    Bit rate                    : 31.7 kb/s
    Count of elements           : 2162
    Stream size                 : 21.3 MiB (0%)
    Language                    : Spanish
    Default                     : No
    Forced                      : No

  • Peso: 23.9 GiB

Sinopsis

Tom Leezak (Ashton Kutcher) y Sarah McNerney (Brittany Murphy), son dos jóvenes que se aman a pesar de ser muy diferentes: él es un modesto reportero de tráfico de un programa de radio nocturno, además de el típico chico apasionado de los deportes. Ella es una escritora de elegantes modales y familia adinerada de Beverly Hills. En contra de los deseos de la familia y del ex-novio de ella, ambos deciden casarse. Los problemas comienzan justo después de la boda, cuando se dan cuenta de que ambos no han sido completamente sinceros y que el matrimonio no es tan sencillo como ellos pensaban. Su luna de miel en Venecia rápidamente se torna en un desastre.

Ficha técnica

Video trailer de la película

Enlaces de descarga

Rip de Bluray

Descargar Just Married (2003) REMUX 1080p Latino – CMHDD




Aportes de DPeliculasHDmega la pass es:dpeliculashdmega.org Aportes de CinemaniaHD la pass es:cinemaniahdd.com
Guardado en : Comedia , Remux , Romance

Películas relacionadas

  • The Hater (2020) REMUX 1080p Latino

    The Hater (2020) REMUX 1080p Latino

    2020
    The Hater (2020) REMUX 1080p Latino

    0.0 2h 15m 2020

    Descargar The Hater (2020) REMUX 1080p Latino. Narra las manipulaciones del maquiavélico Tomek para...

    Director: Jan Komasa

    Género: Drama

    Actores: Vanessa Aleksander

  • El Fanático (2019) REMUX 1080p Latino

    El Fanático (2019) REMUX 1080p Latino

    2019
    El Fanático (2019) REMUX 1080p Latino

    0.0 1h 28m 2019

    Descargar El Fanático (2019) REMUX 1080p Latino. Moose es un fanático del cine de acción que vive...

    Director: Kimberley Roper

    Género: Crimen

    Actores: Rob Wolfe

  • Bolt (2008) HD 1080p Latino – CMHDD

    Bolt (2008) HD 1080p Latino – CMHDD

    2008
    Bolt (2008) HD 1080p Latino – CMHDD

    0.0 1h 36m 2008

    Para el super-perro Bolt todos los días están llenos de aventuras, peligros e intriga -al menos hasta...

    Director: William Otsuka

    Género: Animación

    Actores: Todd Cummings

  • Bolt (2008) Full HD 1080p Latino – CMHDD

    Bolt (2008) Full HD 1080p Latino – CMHDD

    2008
    Bolt (2008) Full HD 1080p Latino – CMHDD

    0.0 1h 36m 2008

    Para el super-perro Bolt todos los días están llenos de aventuras, peligros e intriga -al menos hasta...

    Director: William Otsuka

    Género: Animación

    Actores: Todd Cummings

Comentarios 0