×

¿Problemas para descargar con Mozilla, EDGE? Deshabilita la opción "Abrir vinculos en una pestaña nueva" tal como lo muestra ésta imagen.

Just Married (2003) Full HD 1080p Latino – CMHDD

232 vistas

Información de Just Married (2003) Full HD 1080p Latino – CMHDD

Datos de la película

  • Calidad: Full 1080p
  • Audio: Español Latino AC3 5.1 BLURAY - Ingles DTS 5.1 BLURAY
  • Subtitulos: Español Latino SRT- FORZADOS SRT
  • Resolución: 1920x1080p
  • Formato: MKV
  • Codec: H.264
  • Encoder: Dracarys
  • Mediainfo: Clic para Mostrar Datos Ver
  • Format                      : Matroska
    Format version              : Version 4
    File size                   : 7.77 GiB
    Duration                    : 1 h 34 min
    Overall bit rate mode       : Variable
    Overall bit rate            : 11.7 Mb/s
    Movie name                  : Just Married (2003) Full HD 1080p Latino - CMHDD
    Encoded date                : UTC 2020-07-26 00:03:18
    Writing application         : mkvmerge v46.0.0 ('No Deeper Escape') 64-bit
    Writing library             : libebml v1.3.10 + libmatroska v1.5.2

    Video
    ID                          : 1
    Format                      : AVC
    Format/Info                 : Advanced Video Codec
    Format profile              : High@L4.1
    Format settings             : CABAC / 4 Ref Frames
    Format settings, CABAC      : Yes
    Format settings, Reference  : 4 frames
    Codec ID                    : V_MPEG4/ISO/AVC
    Duration                    : 1 h 34 min
    Bit rate                    : 7 416 kb/s
    Width                       : 1 920 pixels
    Height                      : 1 080 pixels
    Display aspect ratio        : 16:9
    Frame rate mode             : Constant
    Frame rate                  : 23.976 (24000/1001) FPS
    Color space                 : YUV
    Chroma subsampling          : 4:2:0
    Bit depth                   : 8 bits
    Scan type                   : Progressive
    Bits/(Pixel*Frame)          : 0.149
    Stream size                 : 4.91 GiB (63%)
    Writing library             : x264 core 157 r2935 545de2f
    Encoding settings           : cabac=1 / ref=4 / deblock=1:0:0 / analyse=0x3:0x133 / me=tesa / subme=11 / psy=1 / psy_rd=1.00:0.00 / mixed_ref=1 / me_range=24 / chroma_me=1 / trellis=2 / 8x8dct=1 / cqm=0 / deadzone=21,11 / fast_pskip=0 / chroma_qp_offset=-2 / threads=24 / lookahead_threads=6 / sliced_threads=0 / nr=0 / decimate=1 / interlaced=0 / bluray_compat=0 / constrained_intra=0 / bframes=16 / b_pyramid=2 / b_adapt=2 / b_bias=0 / direct=3 / weightb=1 / open_gop=0 / weightp=2 / keyint=240 / keyint_min=24 / scenecut=40 / intra_refresh=0 / rc_lookahead=60 / rc=crf / mbtree=1 / crf=20.0 / qcomp=0.60 / qpmin=0 / qpmax=69 / qpstep=4 / vbv_maxrate=62500 / vbv_bufsize=78125 / crf_max=0.0 / nal_hrd=none / filler=0 / ip_ratio=1.40 / aq=1:1.00
    Language                    : English
    Default                     : Yes
    Forced                      : No
    Color range                 : Limited
    Color primaries             : BT.709
    Transfer characteristics    : BT.709
    Matrix coefficients         : BT.709

    Audio #1
    ID                          : 2
    Format                      : AC-3
    Format/Info                 : Audio Coding 3
    Commercial name             : Dolby Digital
    Codec ID                    : A_AC3
    Duration                    : 1 h 34 min
    Bit rate mode               : Constant
    Bit rate                    : 448 kb/s
    Channel(s)                  : 6 channels
    Channel layout              : L R C LFE Ls Rs
    Sampling rate               : 48.0 kHz
    Frame rate                  : 31.250 FPS (1536 SPF)
    Compression mode            : Lossy
    Stream size                 : 304 MiB (4%)
    Language                    : Spanish
    Service kind                : Complete Main
    Default                     : Yes
    Forced                      : No

    Audio #2
    ID                          : 3
    Format                      : DTS XLL
    Format/Info                 : Digital Theater Systems
    Commercial name             : DTS-HD Master Audio
    Codec ID                    : A_DTS
    Duration                    : 1 h 34 min
    Bit rate mode               : Variable
    Bit rate                    : 3 858 kb/s
    Channel(s)                  : 6 channels
    Channel layout              : C L R Ls Rs LFE
    Sampling rate               : 48.0 kHz
    Frame rate                  : 93.750 FPS (512 SPF)
    Bit depth                   : 24 bits
    Compression mode            : Lossless
    Stream size                 : 2.55 GiB (33%)
    Language                    : English
    Default                     : No
    Forced                      : No

    Text #1
    ID                          : 4
    Format                      : UTF-8
    Codec ID                    : S_TEXT/UTF8
    Codec ID/Info               : UTF-8 Plain Text
    Duration                    : 1 h 34 min
    Bit rate                    : 50 b/s
    Count of elements           : 1081
    Stream size                 : 35.1 KiB (0%)
    Language                    : Spanish
    Default                     : No
    Forced                      : No

    Text #2
    ID                          : 5
    Format                      : UTF-8
    Codec ID                    : S_TEXT/UTF8
    Codec ID/Info               : UTF-8 Plain Text
    Duration                    : 1 h 31 min
    Bit rate                    : 0 b/s
    Count of elements           : 5
    Stream size                 : 65.0 Bytes (0%)
    Title                       : Forzados
    Language                    : Spanish
    Default                     : Yes
    Forced                      : No

    Text #3
    ID                          : 6
    Format                      : PGS
    Muxing mode                 : zlib
    Codec ID                    : S_HDMV/PGS
    Codec ID/Info               : Picture based subtitle format used on BDs/HD-DVDs
    Duration                    : 1 h 34 min
    Bit rate                    : 31.7 kb/s
    Count of elements           : 2162
    Stream size                 : 21.3 MiB (0%)
    Language                    : Spanish
    Default                     : No
    Forced                      : No

    Menu
    00:00:00.000                : :Chapter 1
    00:05:57.983                : :Chapter 2
    00:11:08.126                : :Chapter 3
    00:13:49.120                : :Chapter 4
    00:18:25.896                : :Chapter 5
    00:20:33.190                : :Chapter 6
    00:24:50.656                : :Chapter 7
    00:29:46.159                : :Chapter 8
    00:32:59.394                : :Chapter 9
    00:36:06.998                : :Chapter 10
    00:39:41.838                : :Chapter 11
    00:41:29.779                : :Chapter 12
    00:44:04.725                : :Chapter 13
    00:46:36.669                : :Chapter 14
    00:49:47.818                : :Chapter 15
    00:53:11.772                : :Chapter 16
    00:56:13.954                : :Chapter 17
    00:58:33.552                : :Chapter 18
    01:00:51.857                : :Chapter 19
    01:06:06.004                : :Chapter 20
    01:13:07.633                : :Chapter 21
    01:15:24.520                : :Chapter 22
    01:20:15.853                : :Chapter 23
    01:23:05.105                : :Chapter 24
    01:24:40.450                : :Chapter 25
    01:26:57.796                : :Chapter 26
    01:28:50.575                : :Chapter 27
    01:31:21.476                : :Chapter 28

  • Peso: 7.77 GiB

Sinopsis

Tom Leezak (Ashton Kutcher) y Sarah McNerney (Brittany Murphy), son dos jóvenes que se aman a pesar de ser muy diferentes: él es un modesto reportero de tráfico de un programa de radio nocturno, además de el típico chico apasionado de los deportes. Ella es una escritora de elegantes modales y familia adinerada de Beverly Hills. En contra de los deseos de la familia y del ex-novio de ella, ambos deciden casarse. Los problemas comienzan justo después de la boda, cuando se dan cuenta de que ambos no han sido completamente sinceros y que el matrimonio no es tan sencillo como ellos pensaban. Su luna de miel en Venecia rápidamente se torna en un desastre.

Ficha técnica

Video trailer de la película

Enlaces de descarga

Rip de Bluray

Descargar Just Married (2003) Full HD 1080p Latino – CMHDD




Aportes de DPeliculasHDmega la pass es:dpeliculashdmega.org Aportes de CinemaniaHD la pass es:cinemaniahdd.com
Guardado en : Comedia , Romance

Películas relacionadas

descargar Just Married (2003) Full HD 1080p Latino – CMHDD Full 1080p 1080p gratis, Just Married (2003) Full HD 1080p Latino – CMHDD Full 1080p mega 1 link, Just Married (2003) Full HD 1080p Latino – CMHDD Full 1080p pelicula completa, descargar Just Married (2003) Full HD 1080p Latino – CMHDD Full 1080p gratis en mega.

Just Married (2003) Full HD 1080p Latino – CMHDD pelicula full hd, Just Married (2003) Full HD 1080p Latino – CMHDD mega latino, Just Married (2003) Full HD 1080p Latino – CMHDD 4k latino, Just Married (2003) Full HD 1080p Latino – CMHDD pelicula completa, Just Married (2003) Full HD 1080p Latino – CMHDD descargar gratis, descargar Just Married (2003) Full HD 1080p Latino – CMHDD pelicula latino, Just Married (2003) Full HD 1080p Latino – CMHDD 1 link mega, Just Married (2003) Full HD 1080p Latino – CMHDD 1 link google drive, Just Married (2003) Full HD 1080p Latino – CMHDD hd 1080p latino.
Comentarios 0