×

¿Problemas para descargar con Mozilla, EDGE? Deshabilita la opción "Abrir vinculos en una pestaña nueva" tal como lo muestra ésta imagen.

Just Friends (2005) REMUX 1080p Latino – CMHDD

365 vistas

Información de Just Friends (2005) REMUX 1080p Latino – CMHDD

Datos de la película

  • Calidad: Full 1080p
  • Audio: Español Latino AC3 2.0 BLURAY - Ingles DTS 5.1 BLURAY
  • Subtitulos: Español Latino PGS
  • Resolución: 1920x1080p
  • Formato: MKV
  • Codec: H.264
  • Encoder: Dracarys
  • Mediainfo: Clic para Mostrar Datos Ver
  • Format                      : Matroska
    Format version              : Version 4
    File size                   : 15.0 GiB
    Duration                    : 1 h 34 min
    Overall bit rate mode       : Variable
    Overall bit rate            : 22.7 Mb/s
    Movie name                  : Just Friends (2005) REMUX 1080p Latino - CMHDD
    Encoded date                : UTC 2022-01-23 19:42:49
    Writing application         : mkvmerge v17.0.0 ('Be Ur Friend') 64-bit
    Writing library             : libebml v1.3.5 + libmatroska v1.4.8

    Video
    ID                          : 1
    Format                      : AVC
    Format/Info                 : Advanced Video Codec
    Format profile              : High@L4.1
    Format settings             : CABAC / 4 Ref Frames
    Format settings, CABAC      : Yes
    Format settings, Reference  : 4 frames
    Format settings, GOP        : M=3, N=24
    Codec ID                    : V_MPEG4/ISO/AVC
    Duration                    : 1 h 34 min
    Bit rate mode               : Variable
    Bit rate                    : 20.0 Mb/s
    Maximum bit rate            : 35.0 Mb/s
    Width                       : 1 920 pixels
    Height                      : 1 080 pixels
    Display aspect ratio        : 16:9
    Frame rate mode             : Constant
    Frame rate                  : 24.000 FPS
    Standard                    : NTSC
    Color space                 : YUV
    Chroma subsampling          : 4:2:0
    Bit depth                   : 8 bits
    Scan type                   : Progressive
    Bits/(Pixel*Frame)          : 0.402
    Stream size                 : 13.2 GiB (88%)
    Default                     : Yes
    Forced                      : No
    Color range                 : Limited
    Color primaries             : BT.709
    Transfer characteristics    : BT.709
    Matrix coefficients         : BT.709

    Audio #1
    ID                          : 2
    Format                      : DTS XLL
    Format/Info                 : Digital Theater Systems
    Commercial name             : DTS-HD Master Audio
    Codec ID                    : A_DTS
    Duration                    : 1 h 34 min
    Bit rate mode               : Variable
    Bit rate                    : 2 521 kb/s
    Channel(s)                  : 6 channels
    Channel layout              : C L R Ls Rs LFE
    Sampling rate               : 48.0 kHz
    Frame rate                  : 93.750 FPS (512 SPF)
    Bit depth                   : 16 bits
    Compression mode            : Lossless
    Stream size                 : 1.66 GiB (11%)
    Language                    : English
    Default                     : No
    Forced                      : No

    Audio #2
    ID                          : 3
    Format                      : AC-3
    Format/Info                 : Audio Coding 3
    Commercial name             : Dolby Digital
    Codec ID                    : A_AC3
    Duration                    : 1 h 34 min
    Bit rate mode               : Constant
    Bit rate                    : 192 kb/s
    Channel(s)                  : 2 channels
    Channel layout              : L R
    Sampling rate               : 48.0 kHz
    Frame rate                  : 31.250 FPS (1536 SPF)
    Compression mode            : Lossy
    Stream size                 : 129 MiB (1%)
    Language                    : Spanish
    Service kind                : Complete Main
    Default                     : Yes
    Forced                      : No

    Text
    ID                          : 4
    Format                      : UTF-8
    Codec ID                    : S_TEXT/UTF8
    Codec ID/Info               : UTF-8 Plain Text
    Duration                    : 1 h 33 min
    Bit rate                    : 76 b/s
    Count of elements           : 1657
    Stream size                 : 52.6 KiB (0%)
    Language                    : Spanish
    Default                     : No
    Forced                      : No

    Menu
    00:00:00.000                : en:Chapter 1
    00:08:44.666                : en:Chapter 2
    00:11:52.166                : en:Chapter 3
    00:19:34.500                : en:Chapter 4
    00:22:21.583                : en:Chapter 5
    00:28:59.916                : en:Chapter 6
    00:37:41.333                : en:Chapter 7
    00:41:20.583                : en:Chapter 8
    00:48:32.458                : en:Chapter 9
    00:52:22.625                : en:Chapter 10
    01:01:16.458                : en:Chapter 11
    01:05:18.708                : en:Chapter 12
    01:07:22.541                : en:Chapter 13
    01:13:05.416                : en:Chapter 14
    01:18:33.875                : en:Chapter 15
    01:22:28.125                : en:Chapter 16
    01:25:46.375                : en:Chapter 17
    01:28:12.958                : en:Chapter 18

  • Peso: 15.0 GiB

Sinopsis

Chris (Ryan Reynolds) es un buen chico, divertido… gordo y pardillo. El día de la graduación del Instituto decide armarse de valor y confesarle su amor a Jamie (Amy Smart). Pero Jaime le va a partir el corazón: ella le quiere… sólo como amigo. Diez años más tarde, y a muchos kilómetros de distancia de su pueblo natal, Chris se ha convertido en un atractivo y prometedor productor musical. Su éxito con las mujeres le ha hecho olvidar su fracaso con Jamie. O al menos, eso es lo que él cree. Una tormenta invernal en un viaje de negocios con su nueva estrella musical, la ardiente Samantha James (Anna Faris), le obliga a hacer escala en su antiguo pueblo de New Jersey. Muy a su pesar, va a reencontrarse con su familia, sus amigos… y con Jamie.

Ficha técnica

  • Titulo original: Just Friends
  • Fecha de lanzamiento: 23-11-2005 (Canada, Germany, United States of America)
  • Director: Roger Kumble
  • Género: Comedia, Romance

Video trailer de la película

Enlaces de descarga

Rip de Bluray

Descargar Just Friends (2005) REMUX 1080p Latino – CMHDD


Aportes de DPeliculasHDmega la pass es:dpeliculashdmega.org Aportes de CinemaniaHD la pass es:cinemaniahdd.com
Guardado en : Comedia , Romance

Películas relacionadas

descargar Just Friends (2005) REMUX 1080p Latino – CMHDD Full 1080p 1080p gratis, Just Friends (2005) REMUX 1080p Latino – CMHDD Full 1080p mega 1 link, Just Friends (2005) REMUX 1080p Latino – CMHDD Full 1080p pelicula completa, descargar Just Friends (2005) REMUX 1080p Latino – CMHDD Full 1080p gratis en mega.

Just Friends (2005) REMUX 1080p Latino – CMHDD pelicula full hd, Just Friends (2005) REMUX 1080p Latino – CMHDD mega latino, Just Friends (2005) REMUX 1080p Latino – CMHDD 4k latino, Just Friends (2005) REMUX 1080p Latino – CMHDD pelicula completa, Just Friends (2005) REMUX 1080p Latino – CMHDD descargar gratis, descargar Just Friends (2005) REMUX 1080p Latino – CMHDD pelicula latino, Just Friends (2005) REMUX 1080p Latino – CMHDD 1 link mega, Just Friends (2005) REMUX 1080p Latino – CMHDD 1 link google drive, Just Friends (2005) REMUX 1080p Latino – CMHDD hd 1080p latino.
Comentarios 0