Otra Dimension (2021) Temporada 1 WEB-DL 1080p Latino

12 vistas
1 estrella2 estrellas3 estrellas4 estrellas5 estrellas (1 votos, promedio: 5,00 de 5)
Cargando...

Información de Otra Dimension (2021) Temporada 1 WEB-DL 1080p Latino

Datos de la película

  • Calidad: WEBDL
  • Audio: Se especifica abajo de la Sinopsis
  • Subtitulos: Español Latino SRT - Ingles SRT
  • Resolución: 1920x1080p
  • Formato: MKV
  • Codec: H.264
  • Encoder: CinemaniaHD
  • Mediainfo: Clic para Mostrar Datos Ver
  • Just Beyond S01E01 (2021) D+ Web-DL 1080p Latino.mkv
    Format                      : Matroska
    Format version              : Version 4
    File size                   : 1.46 GiB
    Duration                    : 28 min 13 s
    Overall bit rate mode       : Variable
    Overall bit rate            : 7 392 kb/s
    Movie name                  : CinemaniaHDD.Net
    Encoded date                : UTC 2021-10-13 07:38:39
    Writing application         : mkvmerge v56.1.0 ('My Friend') 64-bit
    Writing library             : libebml v1.4.2 + libmatroska v1.6.4
    Attachments                 : CINEMANIAHD.png

    Video
    ID                          : 1
    Format                      : AVC
    Format/Info                 : Advanced Video Codec
    Format profile              : High@L4
    Format settings             : CABAC / 4 Ref Frames
    Format settings, CABAC      : Yes
    Format settings, Reference  : 4 frames
    Codec ID                    : V_MPEG4/ISO/AVC
    Duration                    : 28 min 13 s
    Bit rate mode               : Variable
    Bit rate                    : 6 366 kb/s
    Maximum bit rate            : 12.7 Mb/s
    Width                       : 1 920 pixels
    Height                      : 1 080 pixels
    Display aspect ratio        : 16:9
    Frame rate mode             : Constant
    Frame rate                  : 23.976 (24000/1001) FPS
    Color space                 : YUV
    Chroma subsampling          : 4:2:0
    Bit depth                   : 8 bits
    Scan type                   : Progressive
    Bits/(Pixel*Frame)          : 0.128
    Stream size                 : 1.26 GiB (86%)
    Title                       : WEB HD1080p [CinemaniaHDD]
    Default                     : Yes
    Forced                      : No
    Color range                 : Limited
    Color primaries             : BT.709
    Transfer characteristics    : BT.709
    Matrix coefficients         : BT.709

    Audio #1
    ID                          : 2
    Format                      : E-AC-3
    Format/Info                 : Enhanced AC-3
    Commercial name             : Dolby Digital Plus
    Codec ID                    : A_EAC3
    Duration                    : 28 min 13 s
    Bit rate mode               : Constant
    Bit rate                    : 256 kb/s
    Channel(s)                  : 6 channels
    Channel layout              : L R C LFE Ls Rs
    Sampling rate               : 48.0 kHz
    Frame rate                  : 31.250 FPS (1536 SPF)
    Compression mode            : Lossy
    Stream size                 : 51.7 MiB (3%)
    Title                       : Español Latino [CinemaniaHDD]
    Language                    : Spanish
    Service kind                : Complete Main
    Default                     : Yes
    Forced                      : No

    Audio #2
    ID                          : 3
    Format                      : E-AC-3 JOC
    Format/Info                 : Enhanced AC-3 with Joint Object Coding
    Commercial name             : Dolby Digital Plus with Dolby Atmos
    Codec ID                    : A_EAC3
    Duration                    : 28 min 13 s
    Bit rate mode               : Constant
    Bit rate                    : 768 kb/s
    Channel(s)                  : 6 channels
    Channel layout              : L R C LFE Ls Rs
    Sampling rate               : 48.0 kHz
    Frame rate                  : 31.250 FPS (1536 SPF)
    Compression mode            : Lossy
    Stream size                 : 155 MiB (10%)
    Title                       : Ingles [CinemaniaHDD]
    Language                    : English
    Service kind                : Complete Main
    Default                     : No
    Forced                      : No
    Complexity index            : 16
    Number of dynamic objects   : 15
    Bed channel count           : 1 channel
    Bed channel configuration   : LFE

    Text #1
    ID                          : 4
    Format                      : UTF-8
    Codec ID                    : S_TEXT/UTF8
    Codec ID/Info               : UTF-8 Plain Text
    Duration                    : 4 min 32 s
    Bit rate                    : 3 b/s
    Count of elements           : 4
    Stream size                 : 133 Bytes (0%)
    Title                       : Forzados-SRT [CinemaniaHDD]
    Language                    : Spanish
    Default                     : Yes
    Forced                      : No

    Text #2
    ID                          : 5
    Format                      : UTF-8
    Codec ID                    : S_TEXT/UTF8
    Codec ID/Info               : UTF-8 Plain Text
    Duration                    : 27 min 40 s
    Bit rate                    : 55 b/s
    Count of elements           : 312
    Stream size                 : 11.2 KiB (0%)
    Title                       : Español-SRT [CinemaniaHDD]
    Language                    : Spanish
    Default                     : No
    Forced                      : No

    Text #3
    ID                          : 6
    Format                      : UTF-8
    Codec ID                    : S_TEXT/UTF8
    Codec ID/Info               : UTF-8 Plain Text
    Duration                    : 26 min 16 s
    Bit rate                    : 57 b/s
    Count of elements           : 333
    Stream size                 : 11.1 KiB (0%)
    Title                       : Ingles-SRT [CinemaniaHDD]
    Language                    : English
    Default                     : No
    Forced                      : No

    Menu
    00:00:01.004                : Intro
    00:00:32.994                : Main
    00:27:40.997                : Credits

  • Peso: 1.21GiB - 1.71GiB Aprox. C/U | 11.8 GiB Total

Sinopsis

Descargar Otra Dimension (2021) Temporada 1 WEB-DL 1080p Latino. Inspirada en las obras de R.L. Stine, “Otra Dimensión” es una serie de ocho episodios que explora lo sobrenatural y cuenta historias sorprendentes y provocadoras de una realidad más allá de la que conocemos. Cada episodio trae al espectador nuevos personajes que deben embarcarse en un viaje sorprendente de auto-conocimiento en un mundo sobrenatural de brujas, aliens, fantasmas y universos paralelos.

Audio Español Latino EAC3 5.1 D+ – Ingles EAC3 5.1 D+
8/8 Capitulos Disponibles!!

Ficha técnica

Video trailer de la película

Enlaces de descarga

Rip de Bluray

Descargar Otra Dimension (2021) Temporada 1 WEB-DL 1080p Latino




Aportes de DPeliculasHDmega la pass es:dpeliculashdmega.org Aportes de CinemaniaHD la pass es:cinemaniahdd.com
Guardado en : Comedia , Fantasía , Series , Terror

Películas relacionadas

  • Batwoman (2021) Temporada 3 HMAX WEB-DL 1080p Latino

    Batwoman (2021) Temporada 3 HMAX WEB-DL 1080p Latino

    2019
    Batwoman (2021) Temporada 3 HMAX WEB-DL 1080p Latino

    0.0 0h 42m 2019

    Kate Kane protege las calles de Gotham como Batwoman, una luchadora con una gran formación dedicada...

    Director: Caroline Dries

    Género: Action & Adventure

    Actores: Victoria Cartagena

  • Stargirl (2021) Temporada 2 WEB-DL 1080p Latino

    Stargirl (2021) Temporada 2 WEB-DL 1080p Latino

    2020
    Stargirl (2021) Temporada 2 WEB-DL 1080p Latino

    3.7 0h 43m 2020

    Courtney Withmore es una estudiante de instituto que ayuda a un grupo de jóvenes héroes a acabar con...

    Director: Geoff Johns

    Género: Action & Adventure

    Actores: Yvette Monreal

  • Playhouse (2020) PLACEBO Full HD 1080p Latino

    Playhouse (2020) PLACEBO Full HD 1080p Latino

    2020
    Playhouse (2020) PLACEBO Full HD 1080p Latino

    0.0 1h 27m 2020

    Descargar Playhouse (2020) PLACEBO Full HD 1080p Latino. El temerario Jack Travis (William Holstead)...

    Director: Toby Watts

    Género: FULL 1080p Plateadas

    Actores: William Holstead

  • Playhouse (2020) HD 1080p Latino

    Playhouse (2020) HD 1080p Latino

    2020
    Playhouse (2020) HD 1080p Latino

    0.0 1h 27m 2020

    Descargar Playhouse (2020) HD 1080p Latino. El temerario Jack Travis (William Holstead) es un irreverente...

    Director: Toby Watts

    Género: HD 1080p

    Actores: William Holstead

Otra Dimension (2021) Temporada 1 WEB-DL 1080p Latino pelicula full hd, Otra Dimension (2021) Temporada 1 WEB-DL 1080p Latino mega latino, Otra Dimension (2021) Temporada 1 WEB-DL 1080p Latino 4k latino, Otra Dimension (2021) Temporada 1 WEB-DL 1080p Latino pelicula completa, Otra Dimension (2021) Temporada 1 WEB-DL 1080p Latino descargar gratis, descargar Otra Dimension (2021) Temporada 1 WEB-DL 1080p Latino pelicula latino, Otra Dimension (2021) Temporada 1 WEB-DL 1080p Latino 1 link mega, Otra Dimension (2021) Temporada 1 WEB-DL 1080p Latino 1 link google drive, Otra Dimension (2021) Temporada 1 WEB-DL 1080p Latino hd 1080p latino.
Comentarios 0