×

¿Problemas para descargar con Mozilla, EDGE? Deshabilita la opción "Abrir vinculos en una pestaña nueva" tal como lo muestra ésta imagen.

Jurassic World (2015) REMUX 4K UHD HDR Latino

331 vistas

Información de Jurassic World (2015) REMUX 4K UHD HDR Latino

Datos de la película

  • Calidad: 4K HDR
  • Audio: Español Latino DTS 5.1 BLURAY - Ingles DTS-HD Master 7.1 BLURAY
  • Subtitulos: Español Latino PGS - Ingles PGS
  • Resolución: 3840x2160p
  • Formato: MKV
  • Codec: HEVC
  • Encoder: CinefiloCool
  • Mediainfo: Clic para Mostrar Datos Ver
  • Jurassic World (2015) REMUX UHD HDR Latino-CMHDD.mkv
    Format                      : Matroska
    Format version              : Version 4
    File size                   : 50.8 GiB
    Duration                    : 2 h 4 min
    Overall bit rate mode       : Variable
    Overall bit rate            : 58.5 Mb/s
    Movie name                  : Jurassic World (2015) CinemaniaHDD.Net
    Encoded date                : UTC 2022-07-18 00:35:05
    Writing application         : mkvmerge v56.1.0 ('My Friend') 64-bit
    Writing library             : libebml v1.4.2 + libmatroska v1.6.4
    Attachments                 : CINEMANIAHD.png

    Video
    ID                          : 1
    Format                      : HEVC
    Format/Info                 : High Efficiency Video Coding
    Format profile              : Main 10@L5.1@High
    HDR format                  : SMPTE ST 2086, HDR10 compatible
    Codec ID                    : V_MPEGH/ISO/HEVC
    Duration                    : 2 h 4 min
    Bit rate                    : 54.7 Mb/s
    Width                       : 3 840 pixels
    Height                      : 2 160 pixels
    Display aspect ratio        : 16:9
    Frame rate mode             : Constant
    Frame rate                  : 23.976 (24000/1001) FPS
    Color space                 : YUV
    Chroma subsampling          : 4:2:0 (Type 2)
    Bit depth                   : 10 bits
    Bits/(Pixel*Frame)          : 0.275
    Stream size                 : 47.5 GiB (93%)
    Title                       : REMUX 2160p HDR [Bluray]
    Default                     : Yes
    Forced                      : No
    Color range                 : Limited
    Color primaries             : BT.2020
    Transfer characteristics    : PQ
    Matrix coefficients         : BT.2020 non-constant
    Mastering display color pri : Display P3
    Mastering display luminance : min: 0.0050 cd/m2, max: 1000 cd/m2
    Maximum Content Light Level : 1000 cd/m2
    Maximum Frame-Average Light : 427 cd/m2

    Audio #1
    ID                          : 2
    Format                      : DTS
    Format/Info                 : Digital Theater Systems
    Codec ID                    : A_DTS
    Duration                    : 2 h 4 min
    Bit rate mode               : Constant
    Bit rate                    : 768 kb/s
    Channel(s)                  : 6 channels
    Channel layout              : C L R Ls Rs LFE
    Sampling rate               : 48.0 kHz
    Frame rate                  : 93.750 FPS (512 SPF)
    Bit depth                   : 24 bits
    Compression mode            : Lossy
    Stream size                 : 683 MiB (1%)
    Title                       : Español Latino [CinemaniaHDD]
    Language                    : Spanish
    Default                     : Yes
    Forced                      : Yes

    Audio #2
    ID                          : 3
    Format                      : DTS XLL X
    Format/Info                 : Digital Theater Systems
    Commercial name             : DTS-HD Master Audio
    Codec ID                    : A_DTS
    Duration                    : 2 h 4 min
    Bit rate mode               : Variable
    Bit rate                    : 3 052 kb/s
    Channel(s)                  : 8 channels
    Channel(s)_Original         : Object Based
    ChannelLayout_Original      : Object Based
    Sampling rate               : 48.0 kHz
    Frame rate                  : 93.750 FPS (512 SPF)
    Bit depth                   : 24 bits
    Stream size                 : 2.65 GiB (5%)
    Title                       : Ingles [CinemaniaHDD]
    Language                    : English
    Default                     : No
    Forced                      : No

    Text #1
    ID                          : 4
    Format                      : PGS
    Muxing mode                 : zlib
    Codec ID                    : S_HDMV/PGS
    Codec ID/Info               : Picture based subtitle format used on BDs/HD-DVDs
    Duration                    : 1 h 52 min
    Bit rate                    : 28.8 kb/s
    Count of elements           : 2450
    Stream size                 : 23.2 MiB (0%)
    Title                       : Sub_Esp [PGS]
    Language                    : Spanish
    Default                     : No
    Forced                      : No

    Text #2
    ID                          : 5
    Format                      : PGS
    Muxing mode                 : zlib
    Codec ID                    : S_HDMV/PGS
    Codec ID/Info               : Picture based subtitle format used on BDs/HD-DVDs
    Duration                    : 1 h 53 min
    Bit rate                    : 36.1 kb/s
    Count of elements           : 2989
    Stream size                 : 29.4 MiB (0%)
    Title                       : Sub_Eng [PGS]
    Language                    : English
    Default                     : No
    Forced                      : No

    Text #3
    ID                          : 6
    Format                      : UTF-8
    Codec ID                    : S_TEXT/UTF8
    Codec ID/Info               : UTF-8 Plain Text
    Duration                    : 1 h 39 min
    Bit rate                    : 0 b/s
    Count of elements           : 19
    Stream size                 : 488 Bytes (0%)
    Title                       : Sub_Forzados
    Language                    : Spanish
    Default                     : Yes
    Forced                      : Yes

    Text #4
    ID                          : 7
    Format                      : UTF-8
    Codec ID                    : S_TEXT/UTF8
    Codec ID/Info               : UTF-8 Plain Text
    Duration                    : 1 h 52 min
    Bit rate                    : 45 b/s
    Count of elements           : 1226
    Stream size                 : 37.9 KiB (0%)
    Title                       : Sub_Esp
    Language                    : Spanish
    Default                     : No
    Forced                      : No

    Menu
    00:00:00.000                : 00:00:00.000
    00:06:59.169                : 00:06:59.169
    00:11:01.828                : 00:11:01.828
    00:18:28.441                : 00:18:28.441
    00:25:34.867                : 00:25:34.867
    00:31:20.837                : 00:31:20.837
    00:39:23.861                : 00:39:23.861
    00:44:07.854                : 00:44:07.854
    00:48:57.226                : 00:48:57.226
    00:55:51.056                : 00:55:51.056
    01:01:21.344                : 01:01:21.344
    01:09:50.561                : 01:09:50.561
    01:15:25.479                : 01:15:25.479
    01:23:51.860                : 01:23:51.860
    01:30:14.701                : 01:30:14.701
    01:36:45.425                : 01:36:45.425
    01:41:15.653                : 01:41:15.653
    01:47:35.282                : 01:47:35.282
    01:53:06.029                : 01:53:06.029
    01:55:37.556                : 01:55:37.556

  • Peso: 50.8 GiB

Sinopsis

Descargar Jurassic World (2015) REMUX 4K UHD HDR Latino. Veintidós años después de lo ocurrido en Jurassic Park, la isla Nublar ha sido transformada en un parque temático, Jurassic Wold, con versiones «domesticadas» de algunos de los dinosaurios más conocidos. Cuando todo parece ir a la perfección y ser el negocio del siglo, un nuevo dinosaurio de especie todavía desconocida y que es mucho más inteligente de lo que se pensaba, comienza a causar estragos entre los visitantes del Parque.

Disponible Solo Para VIP!!!

Ficha técnica

Video trailer de la película

Enlaces de descarga

Rip de Bluray

Descargar Jurassic World (2015) REMUX 4K UHD HDR Latino


Aportes de DPeliculasHDmega la pass es:dpeliculashdmega.org Aportes de CinemaniaHD la pass es:cinemaniahdd.com

Películas relacionadas

Jurassic World (2015) REMUX 4K UHD HDR Latino pelicula full hd, Jurassic World (2015) REMUX 4K UHD HDR Latino mega latino, Jurassic World (2015) REMUX 4K UHD HDR Latino 4k latino, Jurassic World (2015) REMUX 4K UHD HDR Latino pelicula completa, Jurassic World (2015) REMUX 4K UHD HDR Latino descargar gratis, descargar Jurassic World (2015) REMUX 4K UHD HDR Latino pelicula latino, Jurassic World (2015) REMUX 4K UHD HDR Latino 1 link mega, Jurassic World (2015) REMUX 4K UHD HDR Latino 1 link google drive, Jurassic World (2015) REMUX 4K UHD HDR Latino hd 1080p latino.
Comentarios 0