×

¿Problemas para descargar con Mozilla, EDGE? Deshabilita la opción "Abrir vinculos en una pestaña nueva" tal como lo muestra ésta imagen.

Junglee (2019) WEB-DL 1080p Latino

1.690 vistas

Información de Junglee (2019) WEB-DL 1080p Latino

Datos de la película

  • Calidad: WEBDL
  • Audio: Español Latino AC3 2.0
  • Subtitulos: Español Latino SRT
  • Resolución: 1920x798
  • Formato: MKV
  • Codec: H.264
  • Encoder: cinemaniahd
  • Mediainfo: Clic para Mostrar Datos Ver
  • Junglee (2019) WEB-DL 1080p Latino.mkv
    Format                      : Matroska
    Format version              : Version 4
    File size                   : 3.69 GiB
    Duration                    : 1 h 50 min
    Overall bit rate            : 4 784 kb/s
    Encoded date                : UTC 2020-04-07 20:14:16
    Writing application         : mkvmerge v42.0.0 ('Overtime') 64-bit
    Writing library             : libebml v1.3.10 + libmatroska v1.5.2

    Video
    ID                          : 1
    Format                      : AVC
    Format/Info                 : Advanced Video Codec
    Format profile              : High@L4
    Format settings             : CABAC / 5 Ref Frames
    Format settings, CABAC      : Yes
    Format settings, ReFrames   : 5 frames
    Codec ID                    : V_MPEG4/ISO/AVC
    Duration                    : 1 h 50 min
    Bit rate                    : 4 525 kb/s
    Width                       : 1 920 pixels
    Height                      : 798 pixels
    Display aspect ratio        : 2.40:1
    Frame rate mode             : Constant
    Frame rate                  : 23.976 FPS
    Color space                 : YUV
    Chroma subsampling          : 4:2:0
    Bit depth                   : 8 bits
    Scan type                   : Progressive
    Bits/(Pixel*Frame)          : 0.123
    Stream size                 : 3.49 GiB (95%)
    Language                    : English
    Default                     : Yes
    Forced                      : No
    Color range                 : Limited
    Color primaries             : BT.709
    Transfer characteristics    : BT.709
    Matrix coefficients         : BT.709

    Audio #1
    ID                          : 2
    Format                      : AAC LC
    Format/Info                 : Advanced Audio Codec Low Complexity
    Codec ID                    : A_AAC-2
    Duration                    : 1 h 50 min
    Bit rate                    : 128 kb/s
    Channel(s)                  : 2 channels
    Channel layout              : L R
    Sampling rate               : 48.0 kHz
    Frame rate                  : 46.875 FPS (1024 SPF)
    Compression mode            : Lossy
    Delay relative to video     : -42 ms
    Stream size                 : 101 MiB (3%)
    Language                    : Spanish
    Default                     : Yes
    Forced                      : No

    Audio #2
    ID                          : 3
    Format                      : AAC LC
    Format/Info                 : Advanced Audio Codec Low Complexity
    Codec ID                    : A_AAC-2
    Duration                    : 1 h 50 min
    Bit rate                    : 128 kb/s
    Channel(s)                  : 2 channels
    Channel layout              : L R
    Sampling rate               : 48.0 kHz
    Frame rate                  : 46.875 FPS (1024 SPF)
    Compression mode            : Lossy
    Delay relative to video     : -42 ms
    Stream size                 : 101 MiB (3%)
    Language                    : Hindi
    Default                     : No
    Forced                      : No

    Text
    ID                          : 4
    Format                      : UTF-8
    Codec ID                    : S_TEXT/UTF8
    Codec ID/Info               : UTF-8 Plain Text
    Duration                    : 1 h 44 min
    Bit rate                    : 39 b/s
    Count of elements           : 982
    Stream size                 : 30.3 KiB (0%)
    Default                     : Yes
    Forced                      : No

    Menu
    00:00:00.000                : en:1
    00:13:45.282                : en:2
    00:24:49.820                : en:3
    00:36:04.410                : en:4
    00:47:07.071                : en:5
    00:59:59.509                : en:6
    01:10:56.540                : en:7
    01:22:03.872                : en:8
    01:30:34.214                : en:9
    01:40:59.171                : en:10

  • Peso: 3.69 GiB

Sinopsis

Junglee es una película de aventuras familiares, la historia gira en torno al personaje de Vidyut Jammwal, un veterinario que en su regreso a la reserva de elefantes de su padre, se encuentra y lucha contra una raqueta de cazadores furtivos internacionales.

Ficha técnica

Video trailer de la película

Enlaces de descarga

Rip de Bluray

Descargar Junglee (2019) WEB-DL 1080p Latino




Aportes de DPeliculasHDmega la pass es:dpeliculashdmega.org Aportes de CinemaniaHD la pass es:cinemaniahdd.com
Guardado en : Acción , Aventura

Películas relacionadas

descargar Junglee (2019) WEB-DL 1080p Latino WEBDL 1080p gratis, Junglee (2019) WEB-DL 1080p Latino WEBDL mega 1 link, Junglee (2019) WEB-DL 1080p Latino WEBDL pelicula completa, descargar Junglee (2019) WEB-DL 1080p Latino WEBDL gratis en mega.

Junglee (2019) WEB-DL 1080p Latino pelicula full hd, Junglee (2019) WEB-DL 1080p Latino mega latino, Junglee (2019) WEB-DL 1080p Latino 4k latino, Junglee (2019) WEB-DL 1080p Latino pelicula completa, Junglee (2019) WEB-DL 1080p Latino descargar gratis, descargar Junglee (2019) WEB-DL 1080p Latino pelicula latino, Junglee (2019) WEB-DL 1080p Latino 1 link mega, Junglee (2019) WEB-DL 1080p Latino 1 link google drive, Junglee (2019) WEB-DL 1080p Latino hd 1080p latino.
Comentarios 0