Jungle Cruise (2021) PLACEBO Full HD 1080p Latino

36 vistas
1 estrella2 estrellas3 estrellas4 estrellas5 estrellas (2 votos, promedio: 4,00 de 5)
Cargando...

Información de Jungle Cruise (2021) PLACEBO Full HD 1080p Latino

Datos de la película

  • Calidad: Full 1080p
  • Audio: Se especifica abajo de la Sinopsis
  • Subtitulos: Español Latino SRT- FORZADOS SRT
  • Resolución: 1920x1080p
  • Formato: MKV
  • Codec: H.264
  • Encoder: Melkor
  • Mediainfo: Clic para Mostrar Datos Ver
  • Jungle Cruise (2021) PLACEBO Full HD 1080p Latino.mkv
    Format                      : Matroska
    Format version              : Version 4
    File size                   : 8.88 GiB
    Duration                    : 2 h 7 min
    Overall bit rate            : 9 982 kb/s
    Movie name                  : Jungle Cruise (2021) CinemaniaHDD.Net
    Encoded date                : UTC 2021-09-29 22:24:55
    Writing application         : mkvmerge v56.1.0 ('My Friend') 64-bit
    Writing library             : libebml v1.4.2 + libmatroska v1.6.4
    Attachments                 : CINEMANIAHD.png

    Video
    ID                          : 1
    Format                      : AVC
    Format/Info                 : Advanced Video Codec
    Format profile              : High@L4.1
    Format settings             : CABAC / 4 Ref Frames
    Format settings, CABAC      : Yes
    Format settings, Reference  : 4 frames
    Codec ID                    : V_MPEG4/ISO/AVC
    Duration                    : 2 h 7 min
    Bit rate                    : 7 747 kb/s
    Width                       : 1 920 pixels
    Height                      : 1 080 pixels
    Display aspect ratio        : 16:9
    Frame rate mode             : Constant
    Frame rate                  : 23.976 (24000/1001) FPS
    Color space                 : YUV
    Chroma subsampling          : 4:2:0
    Bit depth                   : 8 bits
    Scan type                   : Progressive
    Bits/(Pixel*Frame)          : 0.156
    Stream size                 : 6.89 GiB (78%)
    Title                       : Full HD1080p [CinemaniaHDD]
    Writing library             : x264 core 163 r3059 b684ebe0
    Encoding settings           : cabac=1 / ref=4 / deblock=1:0:0 / analyse=0x3:0x133 / me=tesa / subme=11 / psy=1 / psy_rd=1.00:0.00 / mixed_ref=1 / me_range=24 / chroma_me=1 / trellis=2 / 8x8dct=1 / cqm=0 / deadzone=21,11 / fast_pskip=0 / chroma_qp_offset=-2 / threads=24 / lookahead_threads=6 / sliced_threads=0 / nr=0 / decimate=1 / interlaced=0 / bluray_compat=0 / constrained_intra=0 / bframes=16 / b_pyramid=2 / b_adapt=2 / b_bias=0 / direct=3 / weightb=1 / open_gop=0 / weightp=2 / keyint=240 / keyint_min=24 / scenecut=40 / intra_refresh=0 / rc_lookahead=60 / rc=crf / mbtree=1 / crf=18.0 / qcomp=0.60 / qpmin=0 / qpmax=69 / qpstep=4 / vbv_maxrate=62500 / vbv_bufsize=78125 / crf_max=0.0 / nal_hrd=none / filler=0 / ip_ratio=1.40 / aq=1:1.00
    Default                     : Yes
    Forced                      : Yes
    Color range                 : Limited
    Color primaries             : BT.709
    Transfer characteristics    : BT.709
    Matrix coefficients         : BT.709

    Audio #1
    ID                          : 2
    Format                      : AC-3
    Format/Info                 : Audio Coding 3
    Commercial name             : Dolby Digital
    Codec ID                    : A_AC3
    Duration                    : 2 h 7 min
    Bit rate mode               : Constant
    Bit rate                    : 448 kb/s
    Channel(s)                  : 6 channels
    Channel layout              : L R C LFE Ls Rs
    Sampling rate               : 48.0 kHz
    Frame rate                  : 31.250 FPS (1536 SPF)
    Compression mode            : Lossy
    Stream size                 : 408 MiB (4%)
    Title                       : Español Latino AC3 [CinemaniaHDD]
    Language                    : Spanish
    Service kind                : Complete Main
    Default                     : Yes
    Forced                      : Yes

    Audio #2
    ID                          : 3
    Format                      : DTS
    Format/Info                 : Digital Theater Systems
    Codec ID                    : A_DTS
    Duration                    : 2 h 7 min
    Bit rate mode               : Constant
    Bit rate                    : 1 509 kb/s
    Channel(s)                  : 6 channels
    Channel layout              : C L R Ls Rs LFE
    Sampling rate               : 48.0 kHz
    Frame rate                  : 93.750 FPS (512 SPF)
    Bit depth                   : 24 bits
    Compression mode            : Lossy
    Stream size                 : 1.34 GiB (15%)
    Title                       : Ingles [CinemaniaHDD]
    Language                    : English
    Default                     : No
    Forced                      : No

    Audio #3
    ID                          : 4
    Format                      : E-AC-3
    Format/Info                 : Enhanced AC-3
    Commercial name             : Dolby Digital Plus
    Codec ID                    : A_EAC3
    Duration                    : 2 h 7 min
    Bit rate mode               : Constant
    Bit rate                    : 256 kb/s
    Channel(s)                  : 6 channels
    Channel layout              : L R C LFE Ls Rs
    Sampling rate               : 48.0 kHz
    Frame rate                  : 31.250 FPS (1536 SPF)
    Compression mode            : Lossy
    Stream size                 : 233 MiB (3%)
    Title                       : Español Latino EAC3 [CinemaniaHDD]
    Language                    : Spanish
    Service kind                : Complete Main
    Default                     : No
    Forced                      : No

    Text #1
    ID                          : 5
    Format                      : UTF-8
    Codec ID                    : S_TEXT/UTF8
    Codec ID/Info               : UTF-8 Plain Text
    Duration                    : 1 h 34 min
    Bit rate                    : 0 b/s
    Count of elements           : 21
    Stream size                 : 589 Bytes (0%)
    Title                       : Forzados-SRT [CinemaniaHDD]
    Language                    : Spanish
    Default                     : Yes
    Forced                      : Yes

    Text #2
    ID                          : 6
    Format                      : UTF-8
    Codec ID                    : S_TEXT/UTF8
    Codec ID/Info               : UTF-8 Plain Text
    Duration                    : 1 h 56 min
    Bit rate                    : 56 b/s
    Count of elements           : 1482
    Stream size                 : 48.1 KiB (0%)
    Title                       : Español-SRT [CinemaniaHDD]
    Language                    : Spanish
    Default                     : No
    Forced                      : No

    Text #3
    ID                          : 7
    ID in the original source m : 4608 (0x1200)
    Format                      : PGS
    Muxing mode                 : zlib
    Codec ID                    : S_HDMV/PGS
    Codec ID/Info               : Picture based subtitle format used on BDs/HD-DVDs
    Duration                    : 2 h 6 min
    Bit rate                    : 48.7 kb/s
    Count of elements           : 4204
    Stream size                 : 44.2 MiB (0%)
    Title                       : Ingles-PGS [CinemaniaHDD]
    Language                    : English
    Default                     : No
    Forced                      : No
    Original source medium      : Blu-ray

    Menu
    00:00:00.000                : Chapter 01
    00:03:16.154                : Chapter 02
    00:09:20.434                : Chapter 03
    00:14:44.800                : Chapter 04
    00:17:48.859                : Chapter 05
    00:22:35.854                : Chapter 06
    00:26:23.415                : Chapter 07
    00:31:19.043                : Chapter 08
    00:32:54.055                : Chapter 09
    00:36:55.046                : Chapter 10
    00:41:08.883                : Chapter 11
    00:44:18.656                : Chapter 12
    00:46:25.157                : Chapter 13
    00:48:58.101                : Chapter 14
    00:53:53.480                : Chapter 15
    00:57:06.756                : Chapter 16
    00:58:59.827                : Chapter 17
    01:03:08.993                : Chapter 18
    01:07:11.110                : Chapter 19
    01:13:45.337                : Chapter 20
    01:17:04.620                : Chapter 21
    01:18:26.243                : Chapter 22
    01:24:44.954                : Chapter 23
    01:26:34.314                : Chapter 24
    01:28:21.170                : Chapter 25
    01:35:22.758                : Chapter 26
    01:36:46.467                : Chapter 27
    01:42:55.544                : Chapter 28
    01:54:20.270                : Chapter 29
    01:57:05.685                : Chapter 30

  • Peso: 8.88 GiB

Sinopsis

Descargar Jungle Cruise (2021) PLACEBO Full HD 1080p Latino. Principios del siglo XX. Frank es el carismático capitán de una peculiar embarcación que recorre la selva amazónica. Allí, a pesar de los peligros que el río Amazonas les tiene preparados, Frank llevará en su barco a la científica Lily Houghton y a su hermano McGregor Houghton. Su misión será encontrar un árbol místico que podría tener poderes curativos. Claro que su objetivo no será fácil, y en su aventura se encontrarán con toda clase de dificultades, además de una expedición alemana que busca también este árbol con propiedades curativas. Esta comedia de acción y aventuras está basada en la atracción Jungle Cruise de los parques de ocio de Disney.

Español Latino EAC3 & AC3 5.1 WebDL – Ingles  DTS 5.1 BD

Ficha técnica

Video trailer de la película

Enlaces de descarga

Rip de Bluray

Descargar Jungle Cruise (2021) PLACEBO Full HD 1080p Latino




Aportes de DPeliculasHDmega la pass es:dpeliculashdmega.org Aportes de CinemaniaHD la pass es:cinemaniahdd.com

Películas relacionadas

  • Dune (2021) HMAX 4K-HDR WEB-DL 2160p Latino

    Dune (2021) HMAX 4K-HDR WEB-DL 2160p Latino

    2021
    Dune (2021) HMAX 4K-HDR WEB-DL 2160p Latino

    5.0 2h 35m 2021

    El hijo de una familia noble trata de vengarse de la muerte de su padre al mismo tiempo que salva un...

    Director: Tom Struthers

    Género: Acción

    Actores: Zendaya

  • Dune (2021) HMAX WEB-DL 1080p Latino

    Dune (2021) HMAX WEB-DL 1080p Latino

    2021
    Dune (2021) HMAX WEB-DL 1080p Latino

    5.0 2h 35m 2021

    El hijo de una familia noble trata de vengarse de la muerte de su padre al mismo tiempo que salva un...

    Director: Tom Struthers

    Género: Acción

    Actores: Zendaya

  • Playhouse (2020) PLACEBO Full HD 1080p Latino

    Playhouse (2020) PLACEBO Full HD 1080p Latino

    2020
    Playhouse (2020) PLACEBO Full HD 1080p Latino

    0.0 1h 27m 2020

    Descargar Playhouse (2020) PLACEBO Full HD 1080p Latino. El temerario Jack Travis (William Holstead)...

    Director: Toby Watts

    Género: FULL 1080p Plateadas

    Actores: William Holstead

  • The Three Stooges (2012) REMUX 1080p Latino – CMHDD

    The Three Stooges (2012) REMUX 1080p Latino – CMHDD

    2012
    The Three Stooges (2012) REMUX 1080p Latino – CMHDD

    0.0 1h 32m 2012

    Es inspirada en la serie de 190 cortos, de unos 16 minutos, 'The Three Stooges' que estrenó Columbia...

    Director: Peter Farrelly

    Género: Comedia

    Actores: William R. Brock

Jungle Cruise (2021) PLACEBO Full HD 1080p Latino pelicula full hd, Jungle Cruise (2021) PLACEBO Full HD 1080p Latino mega latino, Jungle Cruise (2021) PLACEBO Full HD 1080p Latino 4k latino, Jungle Cruise (2021) PLACEBO Full HD 1080p Latino pelicula completa, Jungle Cruise (2021) PLACEBO Full HD 1080p Latino descargar gratis, descargar Jungle Cruise (2021) PLACEBO Full HD 1080p Latino pelicula latino, Jungle Cruise (2021) PLACEBO Full HD 1080p Latino 1 link mega, Jungle Cruise (2021) PLACEBO Full HD 1080p Latino 1 link google drive, Jungle Cruise (2021) PLACEBO Full HD 1080p Latino hd 1080p latino.
Comentarios 0