×

¿Problemas para descargar con Mozilla, EDGE? Deshabilita la opción "Abrir vinculos en una pestaña nueva" tal como lo muestra ésta imagen.

Jungle Bunch. Operation Meltdown (2023) WEB-DL 1080p Latino

20 vistas

Información de Jungle Bunch. Operation Meltdown (2023) WEB-DL 1080p Latino

Datos de la película

  • Calidad: 1080p
  • Audio: Español Latino AC3 2.0
  • Subtitulos: No
  • Resolución: 1920x1080
  • Formato: MKV
  • Codec: H.264
  • Encoder: cinemaniahdd
  • Mediainfo: Clic para Mostrar Datos Ver
  • Jungle Bunch. Operation Meltdown (2023) WEB-DL 1080p Latino [CNMNHDD}.mkv
    Format                      : Matroska
    Format version              : Version 4
    File size                   : 3.45 GiB
    Duration                    : 1 h 29 min
    Overall bit rate            : 5 540 kb/s
    Movie name                  : Una jungla de locura 2 (2023) [1080p] - CinemaniaHDD.Net
    Encoded date                : UTC 2024-07-09 02:34:13
    Writing application         : mkvmerge v56.1.0 ('My Friend') 64-bit
    Writing library             : libebml v1.4.2 + libmatroska v1.6.4

    Video
    ID                          : 1
    Format                      : AVC
    Format/Info                 : Advanced Video Codec
    Format profile              : High@L4
    Format settings             : CABAC / 2 Ref Frames
    Format settings, CABAC      : Yes
    Format settings, Reference  : 2 frames
    Codec ID                    : V_MPEG4/ISO/AVC
    Duration                    : 1 h 29 min
    Bit rate                    : 4 770 kb/s
    Width                       : 1 920 pixels
    Height                      : 1 080 pixels
    Display aspect ratio        : 16:9
    Frame rate mode             : Constant
    Frame rate                  : 24.000 FPS
    Color space                 : YUV
    Chroma subsampling          : 4:2:0
    Bit depth                   : 8 bits
    Scan type                   : Progressive
    Bits/(Pixel*Frame)          : 0.096
    Stream size                 : 2.97 GiB (86%)
    Title                       : CinemaniaHDD
    Writing library             : x264 core 155 r2901 7d0ff22
    Default                     : Yes
    Forced                      : No
    Color range                 : Limited
    Color primaries             : BT.709
    Transfer characteristics    : BT.709
    Matrix coefficients         : BT.709

    Audio #1
    ID                          : 2
    Format                      : AC-3
    Format/Info                 : Audio Coding 3
    Commercial name             : Dolby Digital
    Codec ID                    : A_AC3
    Duration                    : 1 h 29 min
    Bit rate mode               : Constant
    Bit rate                    : 384 kb/s
    Channel(s)                  : 6 channels
    Channel layout              : L R C LFE Ls Rs
    Sampling rate               : 48.0 kHz
    Frame rate                  : 31.250 FPS (1536 SPF)
    Compression mode            : Lossy
    Stream size                 : 245 MiB (7%)
    Title                       : Español latino [CinemaniaHDD]
    Language                    : Spanish
    Service kind                : Complete Main
    Default                     : Yes
    Forced                      : No

    Audio #2
    ID                          : 3
    Format                      : AC-3
    Format/Info                 : Audio Coding 3
    Commercial name             : Dolby Digital
    Codec ID                    : A_AC3
    Duration                    : 1 h 29 min
    Bit rate mode               : Constant
    Bit rate                    : 384 kb/s
    Channel(s)                  : 6 channels
    Channel layout              : L R C LFE Ls Rs
    Sampling rate               : 48.0 kHz
    Frame rate                  : 31.250 FPS (1536 SPF)
    Compression mode            : Lossy
    Stream size                 : 245 MiB (7%)
    Title                       : Francés (Original) [CinemaniaHDD]
    Language                    : French
    Service kind                : Complete Main
    Default                     : No
    Forced                      : No

     

  • Peso: 3.45 GiB

Sinopsis

¿A quién llamas para que te ayude cuando un misterioso supervillano cubre la selva de espuma rosa que explota al contacto con el agua? ¡A la pandilla de la jungla! A menos de un mes de la temporada de lluvias, la carrera contrarreloj está en marcha. Desde el Polo Norte hasta el Lejano Oriente, atravesando montañas, desiertos y océanos, nuestros héroes tendrán que recorrer el mundo en busca de un antídoto, ¡lejos de su jungla favorita! Secuela de ‘The Jungle Bunch’ (2017).

Ficha técnica

Video trailer de la película

Enlaces de descarga

Rip de Bluray

Descargar Jungle Bunch. Operation Meltdown (2023) WEB-DL 1080p Latino




Aportes de DPeliculasHDmega la pass es:dpeliculashdmega.org Aportes de CinemaniaHD la pass es:cinemaniahdd.com Aportes recientes:cinemaniahdd.net
Guardado en : Animación , Aventura , Comedia , Familia

Películas relacionadas

  • Un Heroe Anonimo (2024) 1080p Latino-CMHDD

    Un Heroe Anonimo (2024) 1080p Latino-CMHDD

    2024
    Un Heroe Anonimo (2024) 1080p Latino-CMHDD

    1h 53m 2024

    Descargar Un Heroe Anonimo (2024) 1080p Latino-CMHDD. Basada en una extraordinaria historia real, la...

    Director: Richard Ramsey

    Género: Drama

    Actores: Vin Morreale Jr

  • Un Heroe Anonimo (2024) Full HD 1080p Latino-CMHDD

    Un Heroe Anonimo (2024) Full HD 1080p Latino-CMHDD

    2024
    Un Heroe Anonimo (2024) Full HD 1080p Latino-CMHDD

    1h 53m 2024

    Descargar Un Heroe Anonimo (2024) Full HD 1080p Latino-CMHDD Basada en una extraordinaria historia real,...

    Director: Richard Ramsey

    Género: Drama

    Actores: Vin Morreale Jr

  • Un Heroe Anonimo (2024) REMUX 1080p Latino-CMHDD

    Un Heroe Anonimo (2024) REMUX 1080p Latino-CMHDD

    2024
    Un Heroe Anonimo (2024) REMUX 1080p Latino-CMHDD

    1h 53m 2024

    Descargar Un Heroe Anonimo (2024) REMUX 1080p Latino-CMHDD. Basada en una extraordinaria historia real,...

    Director: Richard Ramsey

    Género: Drama

    Actores: Vin Morreale Jr

  • Scary Movie 5 (2013) REMUX 1080p Latino – CMHDD

    Scary Movie 5 (2013) REMUX 1080p Latino – CMHDD

    2013
    Scary Movie 5 (2013) REMUX 1080p Latino – CMHDD

    1h 28m 2013

    Los felizmente casados Dan y Jody empiezan a observar algunos fenómenos extraños en su casa tras volver...

    Director: Tim Fitzgerald

    Género: Comedia

    Actores: Zoe Pessin

  • Scary Movie 4 (2006) REMUX 1080p Latino – CMHDD

    Scary Movie 4 (2006) REMUX 1080p Latino – CMHDD

    2006
    Scary Movie 4 (2006) REMUX 1080p Latino – CMHDD

    1h 29m 2006

    Una nueva entrega de la franquicia que parodia los últimos títulos del cine americano. Esta vez, la...

    Director: Steve Eathorne

    Género: Comedia

    Actores: YoungBloodZ

descargar Jungle Bunch. Operation Meltdown (2023) WEB-DL 1080p Latino 1080p 1080p gratis, Jungle Bunch. Operation Meltdown (2023) WEB-DL 1080p Latino 1080p mega 1 link, Jungle Bunch. Operation Meltdown (2023) WEB-DL 1080p Latino 1080p pelicula completa, descargar Jungle Bunch. Operation Meltdown (2023) WEB-DL 1080p Latino 1080p gratis en mega.

Jungle Bunch. Operation Meltdown (2023) WEB-DL 1080p Latino pelicula full hd, Jungle Bunch. Operation Meltdown (2023) WEB-DL 1080p Latino mega latino, Jungle Bunch. Operation Meltdown (2023) WEB-DL 1080p Latino 4k latino, Jungle Bunch. Operation Meltdown (2023) WEB-DL 1080p Latino pelicula completa, Jungle Bunch. Operation Meltdown (2023) WEB-DL 1080p Latino descargar gratis, descargar Jungle Bunch. Operation Meltdown (2023) WEB-DL 1080p Latino pelicula latino, Jungle Bunch. Operation Meltdown (2023) WEB-DL 1080p Latino 1 link mega, Jungle Bunch. Operation Meltdown (2023) WEB-DL 1080p Latino 1 link google drive, Jungle Bunch. Operation Meltdown (2023) WEB-DL 1080p Latino hd 1080p latino.
Comentarios 0