×

¿Problemas para descargar con Mozilla, EDGE? Deshabilita la opción "Abrir vinculos en una pestaña nueva" tal como lo muestra ésta imagen.

Jumper (2008) OPEN MATTE Full HD 1080p Latino

386 vistas

Información de Jumper (2008) OPEN MATTE Full HD 1080p Latino

Datos de la película

  • Calidad: Full 1080p
  • Audio: Español Latino DTS 5.1 BLURAY - Ingles DTS 5.1 BLURAY
  • Subtitulos: Español Latino PGS - Ingles PGS
  • Resolución: 1920x1080p
  • Formato: MKV
  • Codec: H.264
  • Encoder: CinefiloCool
  • Mediainfo: Clic para Mostrar Datos Ver
  • Jumper (2008) OPEN MATTE Full HD 1080p Latino-CMHDD.mkv
    Format                      : Matroska
    Format version              : Version 4
    File size                   : 11.0 GiB
    Duration                    : 1 h 28 min
    Overall bit rate            : 17.8 Mb/s
    Movie name                  : Jumper (2008) CinemaniaHDD.Net
    Encoded date                : UTC 2021-04-11 04:56:19
    Writing application         : mkvmerge v51.0.0 ('I Wish') 64-bit
    Writing library             : libebml v1.4.0 + libmatroska v1.6.2
    Attachments                 : CINEMANIAHD.png

    Video
    ID                          : 1
    Format                      : AVC
    Format/Info                 : Advanced Video Codec
    Format profile              : High@L4.1
    Format settings             : CABAC / 4 Ref Frames
    Format settings, CABAC      : Yes
    Format settings, Reference  : 4 frames
    Codec ID                    : V_MPEG4/ISO/AVC
    Duration                    : 1 h 28 min
    Bit rate                    : 15.5 Mb/s
    Width                       : 1 920 pixels
    Height                      : 1 080 pixels
    Display aspect ratio        : 16:9
    Frame rate mode             : Constant
    Frame rate                  : 23.976 (24000/1001) FPS
    Color space                 : YUV
    Chroma subsampling          : 4:2:0
    Bit depth                   : 8 bits
    Scan type                   : Progressive
    Bits/(Pixel*Frame)          : 0.311
    Stream size                 : 9.54 GiB (87%)
    Title                       : Full HD1080p [CinemaniaHDD]
    Writing library             : x264 core 157 r2935 545de2f
    Encoding settings           : cabac=1 / ref=4 / deblock=1:0:0 / analyse=0x3:0x133 / me=tesa / subme=11 / psy=1 / psy_rd=1.00:0.00 / mixed_ref=1 / me_range=24 / chroma_me=1 / trellis=2 / 8x8dct=1 / cqm=0 / deadzone=21,11 / fast_pskip=0 / chroma_qp_offset=-2 / threads=24 / lookahead_threads=6 / sliced_threads=0 / nr=0 / decimate=1 / interlaced=0 / bluray_compat=0 / constrained_intra=0 / bframes=16 / b_pyramid=2 / b_adapt=2 / b_bias=0 / direct=3 / weightb=1 / open_gop=0 / weightp=2 / keyint=240 / keyint_min=24 / scenecut=40 / intra_refresh=0 / rc_lookahead=60 / rc=crf / mbtree=1 / crf=20.0 / qcomp=0.60 / qpmin=0 / qpmax=69 / qpstep=4 / vbv_maxrate=62500 / vbv_bufsize=78125 / crf_max=0.0 / nal_hrd=none / filler=0 / ip_ratio=1.40 / aq=1:1.00
    Default                     : Yes
    Forced                      : Yes
    Color range                 : Limited
    Color primaries             : BT.709
    Transfer characteristics    : BT.709
    Matrix coefficients         : BT.709

    Audio #1
    ID                          : 2
    Format                      : DTS
    Format/Info                 : Digital Theater Systems
    Codec ID                    : A_DTS
    Duration                    : 1 h 28 min
    Bit rate mode               : Constant
    Bit rate                    : 768 kb/s
    Channel(s)                  : 6 channels
    Channel layout              : C L R Ls Rs LFE
    Sampling rate               : 48.0 kHz
    Frame rate                  : 93.750 FPS (512 SPF)
    Bit depth                   : 24 bits
    Compression mode            : Lossy
    Stream size                 : 485 MiB (4%)
    Title                       : Español Latino [CinemaniaHDD]
    Language                    : Spanish
    Default                     : Yes
    Forced                      : Yes

    Audio #2
    ID                          : 3
    Format                      : DTS
    Format/Info                 : Digital Theater Systems
    Codec ID                    : A_DTS
    Duration                    : 1 h 28 min
    Bit rate mode               : Constant
    Bit rate                    : 1 509 kb/s
    Channel(s)                  : 6 channels
    Channel layout              : C L R Ls Rs LFE
    Sampling rate               : 48.0 kHz
    Frame rate                  : 93.750 FPS (512 SPF)
    Bit depth                   : 24 bits
    Compression mode            : Lossy
    Stream size                 : 954 MiB (8%)
    Title                       : Ingles [CinemaniaHDD]
    Language                    : English
    Default                     : No
    Forced                      : No

    Text #1
    ID                          : 4
    Format                      : PGS
    Muxing mode                 : zlib
    Codec ID                    : S_HDMV/PGS
    Codec ID/Info               : Picture based subtitle format used on BDs/HD-DVDs
    Duration                    : 14 min 10 s
    Bit rate                    : 605 b/s
    Count of elements           : 6
    Stream size                 : 62.8 KiB (0%)
    Title                       : Forzados-PGS [CinemaniaHDD]
    Language                    : Spanish
    Default                     : No
    Forced                      : No

    Text #2
    ID                          : 5
    Format                      : PGS
    Muxing mode                 : zlib
    Codec ID                    : S_HDMV/PGS
    Codec ID/Info               : Picture based subtitle format used on BDs/HD-DVDs
    Duration                    : 1 h 22 min
    Bit rate                    : 24.2 kb/s
    Count of elements           : 1682
    Stream size                 : 14.4 MiB (0%)
    Title                       : Español-PGS [CinemaniaHDD]
    Language                    : Spanish
    Default                     : No
    Forced                      : No

    Text #3
    ID                          : 6
    Format                      : PGS
    Muxing mode                 : zlib
    Codec ID                    : S_HDMV/PGS
    Codec ID/Info               : Picture based subtitle format used on BDs/HD-DVDs
    Duration                    : 1 h 22 min
    Bit rate                    : 29.2 kb/s
    Count of elements           : 1784
    Stream size                 : 17.4 MiB (0%)
    Title                       : Ingles-PGS [CinemaniaHDD]
    Language                    : English
    Default                     : No
    Forced                      : No

    Text #4
    ID                          : 7
    Format                      : UTF-8
    Codec ID                    : S_TEXT/UTF8
    Codec ID/Info               : UTF-8 Plain Text
    Duration                    : 1 h 13 min
    Bit rate                    : 0 b/s
    Count of elements           : 8
    Stream size                 : 147 Bytes (0%)
    Title                       : Forzados-SRT [CinemaniaHDD]
    Language                    : Spanish
    Default                     : Yes
    Forced                      : Yes

    Text #5
    ID                          : 8
    Format                      : UTF-8
    Codec ID                    : S_TEXT/UTF8
    Codec ID/Info               : UTF-8 Plain Text
    Duration                    : 1 h 22 min
    Bit rate                    : 38 b/s
    Count of elements           : 841
    Stream size                 : 23.3 KiB (0%)
    Title                       : Español-SRT [CinemaniaHDD]
    Language                    : Spanish
    Default                     : No
    Forced                      : No

    Menu
    00:00:00.000                : :Chapter 01
    00:04:21.094                : :Chapter 02
    00:07:52.555                : :Chapter 03
    00:12:35.713                : :Chapter 04
    00:15:08.699                : :Chapter 05
    00:17:46.982                : :Chapter 06
    00:22:51.787                : :Chapter 07
    00:25:51.466                : :Chapter 08
    00:28:57.235                : :Chapter 09
    00:31:46.988                : :Chapter 10
    00:32:57.058                : :Chapter 11
    00:36:18.092                : :Chapter 12
    00:39:52.640                : :Chapter 13
    00:43:21.056                : :Chapter 14
    00:48:47.299                : :Chapter 15
    00:51:01.725                : :Chapter 16
    00:54:48.285                : :Chapter 17
    00:59:15.969                : :Chapter 18
    01:02:11.728                : :Chapter 19
    01:07:32.673                : :Chapter 20
    01:12:45.402                : :Chapter 21
    01:17:04.411                : :Chapter 22
    01:20:39.584                : :Chapter 23
    01:23:49.065                : :Chapter 24

  • Peso: 11.0 GiB

Sinopsis

Descargar Jumper (2008) OPEN MATTE Full HD 1080p Latino. David Rice ha crecido con el misterioso poder que casi todos sueñan poseer: teletransportarse a cualquier lugar del mundo que imagine. Hasta ahora ha utilizado sus poderes para escapar de su pasado, alimentar su inmensa fortuna y permanecer completamente independiente. Nunca ha conocido límites, fronteras ni consecuencias. Pero cuando David descubre a otro joven igual que él, un exaltado trotamundos rebelde llamado Griffin, la verdad de su existencia se revela. Ya no es un curioso fenómeno singular de la naturaleza, sino parte de una larga línea de anomalías genéticas conocidas como «saltadores», que además nunca están a salvo.

Ficha técnica

Video trailer de la película

Enlaces de descarga

Rip de Bluray

Descargar Jumper (2008) OPEN MATTE Full HD 1080p Latino




Aportes de DPeliculasHDmega la pass es:dpeliculashdmega.org Aportes de CinemaniaHD la pass es:cinemaniahdd.com

Películas relacionadas

  • Tren Bala (2022) WEB-DL 4K UHD HDR Latino

    Tren Bala (2022) WEB-DL 4K UHD HDR Latino

    2022
    Tren Bala (2022) WEB-DL 4K UHD HDR Latino

    2h 7m 2022

    Descargar Tren Bala (2022) WEB-DL 4K UHD HDR Latino. El desafortunado asesino "Catarina" está decidido...

    Director: Paul Barry

    Género: 4K HDR

    Actores: Zooey Miyoshi

  • Tren Bala (2022) AMZN WEB-DL 1080p Latino

    Tren Bala (2022) AMZN WEB-DL 1080p Latino

    2022
    Tren Bala (2022) AMZN WEB-DL 1080p Latino

    2h 7m 2022

    Descargar Tren Bala (2022) AMZN WEB-DL 1080p Latino. Cinco asesinos a sueldo se encuentran a bordo de...

    Director: Paul Barry

    Género: Acción

    Actores: Zooey Miyoshi

  • Athena (2022) NF WEB-DL 1080p Latino

    Athena (2022) NF WEB-DL 1080p Latino

    2022
    Athena (2022) NF WEB-DL 1080p Latino

    1h 37m 2022

    Descargar Athena (2022) NF WEB-DL 1080p Latino. Horas después de la trágica muerte de su hermano menor...

    Director: Romain Gavras

    Género: Acción

    Actores: Tarek Haddaji

descargar Jumper (2008) OPEN MATTE Full HD 1080p Latino Full 1080p 1080p gratis, Jumper (2008) OPEN MATTE Full HD 1080p Latino Full 1080p mega 1 link, Jumper (2008) OPEN MATTE Full HD 1080p Latino Full 1080p pelicula completa, descargar Jumper (2008) OPEN MATTE Full HD 1080p Latino Full 1080p gratis en mega.

Jumper (2008) OPEN MATTE Full HD 1080p Latino pelicula full hd, Jumper (2008) OPEN MATTE Full HD 1080p Latino mega latino, Jumper (2008) OPEN MATTE Full HD 1080p Latino 4k latino, Jumper (2008) OPEN MATTE Full HD 1080p Latino pelicula completa, Jumper (2008) OPEN MATTE Full HD 1080p Latino descargar gratis, descargar Jumper (2008) OPEN MATTE Full HD 1080p Latino pelicula latino, Jumper (2008) OPEN MATTE Full HD 1080p Latino 1 link mega, Jumper (2008) OPEN MATTE Full HD 1080p Latino 1 link google drive, Jumper (2008) OPEN MATTE Full HD 1080p Latino hd 1080p latino.
Comentarios 0