Jumper (2008) Full 1080p Latino

1.854 vistas
1 estrella2 estrellas3 estrellas4 estrellas5 estrellas (9 votos, promedio: 4,11 de 5)
Cargando…

Información de Jumper (2008) Full 1080p Latino

Datos de la película

  • Calidad: Full 1080p
  • Audio: Español Latino AC3 5.1 BLURAY - Ingles DTS 5.1 BLURAY
  • Subtitulos: Español Latino PGS
  • Resolución: 1920x1080p
  • Formato: MKV
  • Codec: H.264
  • Encoder: Dracarys
  • Mediainfo: Clic para Mostrar Datos Ver
  • Format                                   : Matroska
    Format version                           : Version 4 / Version 2
    File size                                : 6.56 GiB
    Duration                                 : 1 h 28 min
    Overall bit rate                         : 10.6 Mb/s
    Movie name                               : CinemaniaHDD.net
    Encoded date                             : UTC 2018-06-19 04:17:13 / UTC 2018-06-14T04:10:20Z
    Writing application                      : mkvmerge v15.0.0 ('Duel with the Devil') 64-bit
    Writing library                          : libebml v1.3.5 + libmatroska v1.4.5 / Lavf57.7.2

    Video
    ID                                       : 1
    Format                                   : AVC
    Format/Info                              : Advanced Video Codec
    Format profile                           : High@L4.1
    Format settings                          : CABAC / 4 Ref Frames
    Format settings, CABAC                   : Yes
    Format settings, RefFrames               : 4 frames
    Codec ID                                 : V_MPEG4/ISO/AVC
    Duration                                 : 1 h 28 min
    Bit rate                                 : 8 452 kb/s
    Width                                    : 1 920 pixels
    Height                                   : 1 080 pixels
    Display aspect ratio                     : 16:9
    Frame rate mode                          : Constant
    Frame rate                               : 23.976 (24000/1001) FPS
    Color space                              : YUV
    Chroma subsampling                       : 4:2:0
    Bit depth                                : 8 bits
    Scan type                                : Progressive
    Bits/(Pixel*Frame)                       : 0.170
    Stream size                              : 5.22 GiB (80%)
    Title                                    : Jumper (2008) Full 1080p Latino
    Writing library                          : x264 core 148 r2708 86b7198
    Encoding settings                        : cabac=1 / ref=4 / deblock=1:0:0 / analyse=0x3:0x133 / me=esa / subme=9 / psy=1 / psy_rd=1.00:0.00 / mixed_ref=1 / me_range=16 / chroma_me=1 / trellis=2 / 8x8dct=1 / cqm=0 / deadzone=21,11 / fast_pskip=1 / chroma_qp_offset=-2 / threads=34 / lookahead_threads=2 / sliced_threads=0 / nr=0 / decimate=1 / interlaced=0 / bluray_compat=0 / constrained_intra=0 / bframes=3 / b_pyramid=2 / b_adapt=2 / b_bias=0 / direct=3 / weightb=1 / open_gop=0 / weightp=2 / keyint=240 / keyint_min=24 / scenecut=40 / intra_refresh=0 / rc_lookahead=60 / rc=crf / mbtree=1 / crf=20.0 / qcomp=0.60 / qpmin=0 / qpmax=69 / qpstep=4 / vbv_maxrate=62500 / vbv_bufsize=78125 / crf_max=0.0 / nal_hrd=none / filler=0 / ip_ratio=1.40 / aq=1:1.00
    Language                                 : English
    Default                                  : Yes
    Forced                                   : No
    Color range                              : Limited
    Color primaries                          : BT.709
    Transfer characteristics                 : BT.709
    Matrix coefficients                      : BT.709
    Statistics Tags Issue                    : mkvmerge v15.0.0 ('Duel with the Devil') 64-bit 2018-06-19 04:17:13 / mkvmerge v15.0.0 ('Duel with the Devil') 64-bit 2018-06-19 04:17:13 / UTC 2018-06-14T04:10:20Z
    FromStats_BitRate                        : 8620756
    FromStats_Duration                       : 01:28:29.263000000
    FromStats_FrameCount                     : 127295
    FromStats_StreamSize                     : 5721233059

    Audio #1
    ID                                       : 2
    Format                                   : AC-3
    Format/Info                              : Audio Coding 3
    Format settings, Endianness              : Big
    Codec ID                                 : A_AC3
    Duration                                 : 1 h 28 min
    Bit rate mode                            : Constant
    Bit rate                                 : 448 kb/s
    Channel(s)                               : 6 channels
    Channel positions                        : Front: L C R, Side: L R, LFE
    Sampling rate                            : 48.0 kHz
    Frame rate                               : 31.250 FPS (1536 SPF)
    Bit depth                                : 16 bits
    Compression mode                         : Lossy
    Stream size                              : 284 MiB (4%)
    Language                                 : Spanish
    Service kind                             : Complete Main
    Default                                  : Yes
    Forced                                   : No
    Statistics Tags Issue                    : mkvmerge v15.0.0 ('Duel with the Devil') 64-bit 2018-06-19 04:17:13 / mkvmerge v15.0.0 ('Duel with the Devil') 64-bit 2018-06-19 04:17:13 / UTC 2018-06-14T04:10:20Z
    FromStats_BitRate                        : 448000
    FromStats_Duration                       : 01:28:29.312000000
    FromStats_FrameCount                     : 165916
    FromStats_StreamSize                     : 297321472

    Audio #2
    ID                                       : 3
    Format                                   : DTS
    Format/Info                              : Digital Theater Systems
    Mode                                     : 16
    Format settings, Endianness              : Big
    Codec ID                                 : A_DTS
    Duration                                 : 1 h 28 min
    Bit rate mode                            : Constant
    Bit rate                                 : 1 509 kb/s
    Channel(s)                               : 6 channels
    Channel positions                        : Front: L C R, Side: L R, LFE
    Sampling rate                            : 48.0 kHz
    Frame rate                               : 93.750 FPS (512 SPF)
    Bit depth                                : 24 bits
    Compression mode                         : Lossy
    Stream size                              : 955 MiB (14%)
    Language                                 : English
    Default                                  : No
    Forced                                   : No
    Statistics Tags Issue                    : mkvmerge v15.0.0 ('Duel with the Devil') 64-bit 2018-06-19 04:17:13 / mkvmerge v15.0.0 ('Duel with the Devil') 64-bit 2018-06-19 04:17:13 / UTC 2018-06-14T04:10:20Z
    FromStats_BitRate                        : 1508999
    FromStats_Duration                       : 01:28:29.302000000
    FromStats_FrameCount                     : 497747
    FromStats_StreamSize                     : 1001466964

    Text #1
    ID                                       : 4
    Format                                   : PGS
    Muxing mode                              : zlib
    Codec ID                                 : S_HDMV/PGS
    Codec ID/Info                            : Picture based subtitle format used on BDs/HD-DVDs
    Language                                 : English
    Default                                  : No
    Forced                                   : No
    Statistics Tags Issue                    : mkvmerge v15.0.0 ('Duel with the Devil') 64-bit 2018-06-19 04:17:13 / mkvmerge v15.0.0 ('Duel with the Devil') 64-bit 2018-06-19 04:17:13 / UTC 2018-06-14T04:10:20Z
    FromStats_BitRate                        : 56434
    FromStats_Duration                       : 01:25:51.771000000
    FromStats_FrameCount                     : 2328
    FromStats_StreamSize                     : 36342210

    Text #2
    ID                                       : 5
    Format                                   : PGS
    Muxing mode                              : zlib
    Codec ID                                 : S_HDMV/PGS
    Codec ID/Info                            : Picture based subtitle format used on BDs/HD-DVDs
    Language                                 : Spanish
    Default                                  : No
    Forced                                   : No
    Statistics Tags Issue                    : mkvmerge v15.0.0 ('Duel with the Devil') 64-bit 2018-06-19 04:17:13 / mkvmerge v15.0.0 ('Duel with the Devil') 64-bit 2018-06-19 04:17:13 / UTC 2018-06-14T04:10:20Z
    FromStats_BitRate                        : 41715
    FromStats_Duration                       : 01:23:06.898000000
    FromStats_FrameCount                     : 1615
    FromStats_StreamSize                     : 26003636

    Text #3
    ID                                       : 6
    Format                                   : PGS
    Muxing mode                              : zlib
    Codec ID                                 : S_HDMV/PGS
    Codec ID/Info                            : Picture based subtitle format used on BDs/HD-DVDs
    Title                                    : Forzados
    Language                                 : Spanish
    Default                                  : No
    Forced                                   : No
    Statistics Tags Issue                    : mkvmerge v15.0.0 ('Duel with the Devil') 64-bit 2018-06-19 04:17:13 / mkvmerge v15.0.0 ('Duel with the Devil') 64-bit 2018-06-19 04:17:13 / UTC 2018-06-14T04:10:20Z
    FromStats_BitRate                        : 639
    FromStats_Duration                       : 01:13:20.646000000
    FromStats_FrameCount                     : 25
    FromStats_StreamSize                     : 351759

    Menu
    00:00:00.000                             : :Chapter 1
    00:04:21.094                             : :Chapter 2
    00:07:52.555                             : :Chapter 3
    00:12:35.713                             : :Chapter 4
    00:15:08.699                             : :Chapter 5
    00:17:46.983                             : :Chapter 6
    00:22:51.787                             : :Chapter 7
    00:25:51.467                             : :Chapter 8
    00:28:57.236                             : :Chapter 9
    00:31:46.988                             : :Chapter 10
    00:32:57.058                             : :Chapter 11
    00:36:18.093                             : :Chapter 12
    00:39:47.719                             : :Chapter 13
    00:43:16.094                             : :Chapter 14
    00:48:45.256                             : :Chapter 15
    00:50:59.723                             : :Chapter 16
    00:54:52.122                             : :Chapter 17
    00:59:19.806                             : :Chapter 18
    01:02:18.902                             : :Chapter 19
    01:07:39.847                             : :Chapter 20
    01:12:52.577                             : :Chapter 21
    01:17:11.585                             : :Chapter 22
    01:20:46.800                             : :Chapter 23
    01:23:56.198                             : :Chapter 24

  • Peso: 6.56 GiB

Sinopsis

David Rice ha crecido con el misterioso poder que casi todos sueñan poseer: teletransportarse a cualquier lugar del mundo que imagine. Hasta ahora ha utilizado sus poderes para escapar de su pasado, alimentar su inmensa fortuna y permanecer completamente independiente. Nunca ha conocido límites, fronteras ni consecuencias. Pero cuando David descubre a otro joven igual que él, un exaltado trotamundos rebelde llamado Griffin, la verdad de su existencia se revela. Ya no es un curioso fenómeno singular de la naturaleza, sino parte de una larga línea de anomalías genéticas conocidas como “saltadores”, que además nunca están a salvo.

Ficha técnica

Video trailer de la película

Enlaces de descarga

Rip de Bluray

Descargar Jumper (2008) Full 1080p Latino




Aportes de DPeliculasHDmega la pass es:dpeliculashdmega.org Aportes de CinemaniaHD la pass es:cinemaniahdd.com

Películas relacionadas

  • La casa con un reloj en sus paredes (2018) 1080p Latino

    2018
    La casa con un reloj en sus paredes (2018) 1080p Latino

    5.0 1h 45m 2018

    Descargar La casa con un reloj en sus paredes (2018) 1080p Latino, Mega, Google Drive, Torrent. La historia...

    Director: Eli Roth

    Género: Familia

    Actores: Vanessa Anne Williams

  • Godzilla (2014) 1080p Latino

    2014
    Godzilla (2014) 1080p Latino

    0.0 2h 3m 2014

    Descargar Godzilla (2014) 1080p Latino, Mega, Google Drive, Torrent. Gareth Edwards dirige este "reboot",...

    Director: Jessica Clothier

    Género: Acción

    Actores: Yuki Morita

  • Godzilla (2014) Full 1080p Latino

    2014
    Godzilla (2014) Full 1080p Latino

    4.2 2h 3m 2014

    Descargar Godzilla (2014) Full 1080p Latino, Mega, Google Drive, Torrent. Gareth Edwards dirige este...

    Director: Jessica Clothier

    Género: Acción

    Actores: Yuki Morita

Comentarios 0