×

¿Problemas para descargar con Mozilla, EDGE? Deshabilita la opción "Abrir vinculos en una pestaña nueva" tal como lo muestra ésta imagen.

Jumanji: The Next Level (2019) WEB-DL 1080p Latino

1.756 vistas

Información de Jumanji: The Next Level (2019) WEB-DL 1080p Latino

Datos de la película

  • Calidad: WEBDL
  • Audio: Español Latino AC3 2.0 WEB-DL - Ingles AC3 5.1 WEB-DL
  • Subtitulos: Español Latino SRT- FORZADOS SRT
  • Resolución: 1920x1080
  • Formato: MKV
  • Codec: H.264
  • Encoder: cinemaniahdd
  • Mediainfo: Clic para Mostrar Datos Ver
  • Jumanji, The Next Level (2019) WEB-DL 1080p Latino.mkv
    Format                      : Matroska
    Format version              : Version 4
    File size                   : 5.29 GiB
    Duration                    : 2 h 3 min
    Overall bit rate            : 6 152 kb/s
    Movie name                  : Jumanji, The Next Level (2019) - CinemaniaHDD.Net
    Encoded date                : UTC 2020-02-29 21:52:01
    Writing application         : mkvmerge v42.0.0 ('Overtime') 64-bit
    Writing library             : libebml v1.3.10 + libmatroska v1.5.2

    Video
    ID                          : 1
    Format                      : AVC
    Format/Info                 : Advanced Video Codec
    Format profile              : High@L4
    Format settings             : CABAC / 2 Ref Frames
    Format settings, CABAC      : Yes
    Format settings, ReFrames   : 2 frames
    Codec ID                    : V_MPEG4/ISO/AVC
    Duration                    : 2 h 3 min
    Bit rate                    : 5 509 kb/s
    Width                       : 1 920 pixels
    Height                      : 1 080 pixels
    Display aspect ratio        : 16:9
    Frame rate mode             : Constant
    Frame rate                  : 23.976 (24000/1001) FPS
    Color space                 : YUV
    Chroma subsampling          : 4:2:0
    Bit depth                   : 8 bits
    Scan type                   : Progressive
    Bits/(Pixel*Frame)          : 0.111
    Stream size                 : 4.74 GiB (90%)
    Title                       : CinemaniaHDD
    Writing library             : x264 core 155 r2901 7d0ff22
    Default                     : Yes
    Forced                      : No
    Color range                 : Limited
    Color primaries             : BT.709
    Transfer characteristics    : BT.709
    Matrix coefficients         : BT.709

    Audio #1
    ID                          : 2
    Format                      : AC-3
    Format/Info                 : Audio Coding 3
    Commercial name             : Dolby Digital
    Codec ID                    : A_AC3
    Duration                    : 2 h 3 min
    Bit rate mode               : Constant
    Bit rate                    : 256 kb/s
    Channel(s)                  : 2 channels
    Channel layout              : L R
    Sampling rate               : 48.0 kHz
    Frame rate                  : 31.250 FPS (1536 SPF)
    Bit depth                   : 16 bits
    Compression mode            : Lossy
    Stream size                 : 225 MiB (4%)
    Title                       : Español latino [CinemaniaHDD]
    Language                    : Spanish
    Service kind                : Complete Main
    Default                     : Yes
    Forced                      : No

    Audio #2
    ID                          : 3
    Format                      : AC-3
    Format/Info                 : Audio Coding 3
    Commercial name             : Dolby Digital
    Codec ID                    : A_AC3
    Duration                    : 2 h 3 min
    Bit rate mode               : Constant
    Bit rate                    : 384 kb/s
    Channel(s)                  : 6 channels
    Channel layout              : L R C LFE Ls Rs
    Sampling rate               : 48.0 kHz
    Frame rate                  : 31.250 FPS (1536 SPF)
    Bit depth                   : 16 bits
    Compression mode            : Lossy
    Delay relative to video     : 6 ms
    Stream size                 : 338 MiB (6%)
    Title                       : Inglés [CinemaniaHDD]
    Language                    : English
    Service kind                : Complete Main
    Default                     : No
    Forced                      : No

    Text #1
    ID                          : 4
    Format                      : UTF-8
    Codec ID                    : S_TEXT/UTF8
    Codec ID/Info               : UTF-8 Plain Text
    Duration                    : 1 h 50 min
    Bit rate                    : 0 b/s
    Count of elements           : 16
    Stream size                 : 435 Bytes (0%)
    Title                       : Forzados [CinemaniaHDD]
    Language                    : Spanish
    Default                     : Yes
    Forced                      : Yes

    Text #2
    ID                          : 5
    Format                      : UTF-8
    Codec ID                    : S_TEXT/UTF8
    Codec ID/Info               : UTF-8 Plain Text
    Duration                    : 1 h 54 min
    Bit rate                    : 62 b/s
    Count of elements           : 1700
    Stream size                 : 52.1 KiB (0%)
    Title                       : Español latino [CinemaniaHDD]
    Language                    : Spanish
    Default                     : No
    Forced                      : No

     

  • Peso: 5.29 GiB

Sinopsis

En esta ocasión, los ‘jugadores’ vuelven al juego, pero sus personajes se han intercambiado entre sí, lo que ofrece un curioso plantel: los mismos héroes con distinta apariencia. Pero, ¿dónde está el resto de la gente? Los participantes sólo tienen una opción: jugar una vez más a esta peligrosa partida para descubrir qué es realmente lo que está sucediendo.

Ficha técnica

Video trailer de la película

Enlaces de descarga

Rip de Bluray

Descargar Jumanji: The Next Level (2019) WEB-DL 1080p Latino




Aportes de DPeliculasHDmega la pass es:dpeliculashdmega.org Aportes de CinemaniaHD la pass es:cinemaniahdd.com
Guardado en : Acción , Aventura , Comedia , Fantasía

Películas relacionadas

descargar Jumanji: The Next Level (2019) WEB-DL 1080p Latino WEBDL 1080p gratis, Jumanji: The Next Level (2019) WEB-DL 1080p Latino WEBDL mega 1 link, Jumanji: The Next Level (2019) WEB-DL 1080p Latino WEBDL pelicula completa, descargar Jumanji: The Next Level (2019) WEB-DL 1080p Latino WEBDL gratis en mega.

Jumanji: The Next Level (2019) WEB-DL 1080p Latino pelicula full hd, Jumanji: The Next Level (2019) WEB-DL 1080p Latino mega latino, Jumanji: The Next Level (2019) WEB-DL 1080p Latino 4k latino, Jumanji: The Next Level (2019) WEB-DL 1080p Latino pelicula completa, Jumanji: The Next Level (2019) WEB-DL 1080p Latino descargar gratis, descargar Jumanji: The Next Level (2019) WEB-DL 1080p Latino pelicula latino, Jumanji: The Next Level (2019) WEB-DL 1080p Latino 1 link mega, Jumanji: The Next Level (2019) WEB-DL 1080p Latino 1 link google drive, Jumanji: The Next Level (2019) WEB-DL 1080p Latino hd 1080p latino.
Comentarios 2
  • Saul - 29 febrero, 2020

    No puedo entrar no me tira la publicidad para esperar los 30 segundos

    • CinemaniaHDD - 29 febrero, 2020

      desintale todo bloqueador de publicidad y borre la cache de su navegador web.
      otra opcion es navegar usando el modo incognito «nueva ventana privada»