×

¿Problemas para descargar con Mozilla, EDGE? Deshabilita la opción "Abrir vinculos en una pestaña nueva" tal como lo muestra ésta imagen.

Jumanji: siguiente nivel (2019) 1080p Latino

2.763 vistas

Información de Jumanji: siguiente nivel (2019) 1080p Latino

Datos de la película

  • Calidad: 1080p
  • Audio: Español Latino AC3 5.1 BLURAY - Ingles AC3 5.1 BLURAY
  • Subtitulos: Español Latino SRT- FORZADOS SRT
  • Resolución: 1920x804p
  • Formato: MKV
  • Codec: H.264
  • Encoder: cinemaniahdd
  • Mediainfo: Clic para Mostrar Datos Ver
  • Jumanji, siguiente nivel (2019) 1080p Latino.mkv
    Format                      : Matroska
    Format version              : Version 4
    File size                   : 4.33 GiB
    Duration                    : 2 h 3 min
    Overall bit rate            : 5 033 kb/s
    Movie name                  : Jumanji, siguiente nivel (2019) - CinemaniaHDD.Net
    Encoded date                : UTC 2020-03-01 17:25:55
    Writing application         : mkvmerge v42.0.0 ('Overtime') 64-bit
    Writing library             : libebml v1.3.10 + libmatroska v1.5.2

    Video
    ID                          : 1
    Format                      : AVC
    Format/Info                 : Advanced Video Codec
    Format profile              : Main@L4
    Format settings             : CABAC / 5 Ref Frames
    Format settings, CABAC      : Yes
    Format settings, ReFrames   : 5 frames
    Codec ID                    : V_MPEG4/ISO/AVC
    Duration                    : 2 h 3 min
    Bit rate                    : 4 000 kb/s
    Width                       : 1 920 pixels
    Height                      : 804 pixels
    Display aspect ratio        : 2.40:1
    Frame rate mode             : Constant
    Frame rate                  : 23.976 (24000/1001) FPS
    Color space                 : YUV
    Chroma subsampling          : 4:2:0
    Bit depth                   : 8 bits
    Scan type                   : Progressive
    Bits/(Pixel*Frame)          : 0.108
    Stream size                 : 3.39 GiB (78%)
    Title                       : CinemaniaHDD
    Writing library             : x264 core 157 r2935 545de2f
    Encoding settings           : cabac=1 / ref=5 / deblock=1:0:0 / analyse=0x1:0x111 / me=hex / subme=8 / psy=1 / psy_rd=1.00:0.00 / mixed_ref=1 / me_range=16 / chroma_me=1 / trellis=2 / 8x8dct=0 / cqm=0 / deadzone=21,11 / fast_pskip=1 / chroma_qp_offset=-2 / threads=25 / lookahead_threads=4 / sliced_threads=0 / nr=0 / decimate=1 / interlaced=0 / bluray_compat=0 / constrained_intra=0 / bframes=3 / b_pyramid=2 / b_adapt=1 / b_bias=0 / direct=3 / weightb=1 / open_gop=0 / weightp=2 / keyint=240 / keyint_min=24 / scenecut=40 / intra_refresh=0 / rc_lookahead=50 / rc=abr / mbtree=1 / bitrate=4000 / ratetol=1.0 / qcomp=0.60 / qpmin=0 / qpmax=69 / qpstep=4 / vbv_maxrate=20000 / vbv_bufsize=25000 / nal_hrd=none / filler=0 / ip_ratio=1.40 / aq=1:1.00
    Default                     : Yes
    Forced                      : No
    Color range                 : Limited
    Color primaries             : BT.709
    Transfer characteristics    : BT.709
    Matrix coefficients         : BT.709

    Audio #1
    ID                          : 2
    Format                      : AC-3
    Format/Info                 : Audio Coding 3
    Commercial name             : Dolby Digital
    Codec ID                    : A_AC3
    Duration                    : 2 h 3 min
    Bit rate mode               : Constant
    Bit rate                    : 640 kb/s
    Channel(s)                  : 6 channels
    Channel layout              : L R C LFE Ls Rs
    Sampling rate               : 48.0 kHz
    Frame rate                  : 31.250 FPS (1536 SPF)
    Bit depth                   : 16 bits
    Compression mode            : Lossy
    Delay relative to video     : 24 ms
    Stream size                 : 564 MiB (13%)
    Title                       : Español latino [CinemaniaHDD]
    Language                    : Spanish
    Service kind                : Complete Main
    Default                     : Yes
    Forced                      : No

    Audio #2
    ID                          : 3
    Format                      : AC-3
    Format/Info                 : Audio Coding 3
    Commercial name             : Dolby Digital
    Codec ID                    : A_AC3
    Duration                    : 2 h 3 min
    Bit rate mode               : Constant
    Bit rate                    : 448 kb/s
    Channel(s)                  : 6 channels
    Channel layout              : L R C LFE Ls Rs
    Sampling rate               : 48.0 kHz
    Frame rate                  : 31.250 FPS (1536 SPF)
    Bit depth                   : 16 bits
    Compression mode            : Lossy
    Delay relative to video     : -5 ms
    Stream size                 : 395 MiB (9%)
    Title                       : Inglés [CinemaniaHDD]
    Language                    : English
    Service kind                : Complete Main
    Default                     : No
    Forced                      : No

    Text #1
    ID                          : 4
    Format                      : UTF-8
    Codec ID                    : S_TEXT/UTF8
    Codec ID/Info               : UTF-8 Plain Text
    Duration                    : 1 h 50 min
    Bit rate                    : 0 b/s
    Count of elements           : 16
    Stream size                 : 435 Bytes (0%)
    Title                       : Forzados [CinemaniaHDD]
    Language                    : Spanish
    Default                     : Yes
    Forced                      : Yes

    Text #2
    ID                          : 5
    Format                      : UTF-8
    Codec ID                    : S_TEXT/UTF8
    Codec ID/Info               : UTF-8 Plain Text
    Duration                    : 1 h 54 min
    Bit rate                    : 62 b/s
    Count of elements           : 1700
    Stream size                 : 52.1 KiB (0%)
    Title                       : Español latino [CinemaniaHDD]
    Language                    : Spanish
    Default                     : No
    Forced                      : No

    Menu
    00:00:00.000                : :Chapter 1
    00:09:18.433                : :Chapter 2
    00:17:40.518                : :Chapter 3
    00:23:10.723                : :Chapter 4
    00:31:12.371                : :Chapter 5
    00:38:19.214                : :Chapter 6
    00:42:39.348                : :Chapter 7
    00:48:52.972                : :Chapter 8
    00:57:11.428                : :Chapter 9
    01:06:03.001                : :Chapter 10
    01:13:16.183                : :Chapter 11
    01:21:29.093                : :Chapter 12
    01:28:33.809                : :Chapter 13
    01:32:39.596                : :Chapter 14
    01:37:05.403                : :Chapter 15
    01:45:00.586                : :Chapter 16

     

  • Peso: 4.33 GiB

Sinopsis

En esta ocasión, los ‘jugadores’ vuelven al juego, pero sus personajes se han intercambiado entre sí, lo que ofrece un curioso plantel: los mismos héroes con distinta apariencia. Pero, ¿dónde está el resto de la gente? Los participantes sólo tienen una opción: jugar una vez más a esta peligrosa partida para descubrir qué es realmente lo que está sucediendo.

Ficha técnica

Video trailer de la película

Enlaces de descarga

Rip de Bluray

Descargar Jumanji: siguiente nivel (2019) 1080p Latino




Aportes de DPeliculasHDmega la pass es:dpeliculashdmega.org Aportes de CinemaniaHD la pass es:cinemaniahdd.com
Guardado en : Acción , Aventura , Comedia , Fantasía , HD 1080p

Películas relacionadas

  • Jaula Mental (2022) HD 1080p Latino

    Jaula Mental (2022) HD 1080p Latino

    2022
    Jaula Mental (2022) HD 1080p Latino

    1h 47m 2022

    Descargar Jaula Mental (2022) HD 1080p Latino. Cuando un asesino que imita otros crímenes comienza a...

    Director: Mauro Borrelli

    Género: Crimen

    Actores: Victoria Fox

  • Transfusion (2023) HD 1080p Latino

    Transfusion (2023) HD 1080p Latino

    2023
    Transfusion (2023) HD 1080p Latino

    1h 45m 2023

    Descargar Transfusion (2023) HD 1080p Latino. Un antiguo agente de las Fuerzas Especiales se ve empujado...

    Director: Matt Nable

    Género: Crimen

    Actores: Trystan Go

  • Gladiador (2000) EXTENDED CUT 1080p Latino

    Gladiador (2000) EXTENDED CUT 1080p Latino

    2000
    Gladiador (2000) EXTENDED CUT 1080p Latino

    2h 35m 2000

    Gladiador (2000) EXTENDED CUT 1080p Latino. Máximo, General de las Legiones Romanas, es querido por...

    Director: Ridley Scott

    Género: Acción

    Actores: Tony Curran

  • Gladiador (2000) EXTENDED CUT Full HD 1080p Latino

    Gladiador (2000) EXTENDED CUT Full HD 1080p Latino

    2000
    Gladiador (2000) EXTENDED CUT Full HD 1080p Latino

    2h 35m 2000

    Descargar Gladiador (2000) [Extended Cut] Full HD 1080p Latino. Máximo, General de las Legiones Romanas,...

    Director: Ridley Scott

    Género: Acción

    Actores: Tony Curran

descargar Jumanji: siguiente nivel (2019) 1080p Latino 1080p 1080p gratis, Jumanji: siguiente nivel (2019) 1080p Latino 1080p mega 1 link, Jumanji: siguiente nivel (2019) 1080p Latino 1080p pelicula completa, descargar Jumanji: siguiente nivel (2019) 1080p Latino 1080p gratis en mega.

Jumanji: siguiente nivel (2019) 1080p Latino pelicula full hd, Jumanji: siguiente nivel (2019) 1080p Latino mega latino, Jumanji: siguiente nivel (2019) 1080p Latino 4k latino, Jumanji: siguiente nivel (2019) 1080p Latino pelicula completa, Jumanji: siguiente nivel (2019) 1080p Latino descargar gratis, descargar Jumanji: siguiente nivel (2019) 1080p Latino pelicula latino, Jumanji: siguiente nivel (2019) 1080p Latino 1 link mega, Jumanji: siguiente nivel (2019) 1080p Latino 1 link google drive, Jumanji: siguiente nivel (2019) 1080p Latino hd 1080p latino.
Comentarios 0