Jumanji: Bienvenidos a la jungla (2017) Full 1080p Latino

9.084 vistas
1 estrella2 estrellas3 estrellas4 estrellas5 estrellas (2 votos, promedio: 5,00 de 5)
Cargando…

Información de Jumanji: Bienvenidos a la jungla (2017) Full 1080p Latino

Datos de la película

  • Calidad: Full 1080p
  • Audio: Español Latino AC3 5.1 BLURAY - Ingles DTS 5.1 BLURAY
  • Subtitulos: Español Latino PGS - Ingles PGS
  • Resolución: 1920X1080p
  • Formato: MKV
  • Codec: H.264
  • Encoder: Dracarys
  • Mediainfo: Clic para Mostrar Datos Ver
  • Format                                   : Matroska
    Format version                           : Version 4 / Version 2
    File size                                : 5.55 GiB
    Duration                                 : 1 h 59 min
    Overall bit rate                         : 6 669 kb/s
    Movie name                               : CinemaniaHDD.com
    Encoded date                             : UTC 2018-03-14 02:49:50 / UTC 2018-03-13T16:04:39Z
    Writing application                      : mkvmerge v15.0.0 ('Duel with the Devil') 64-bit
    Writing library                          : libebml v1.3.5 + libmatroska v1.4.5 / Lavf57.7.2

    Video
    ID                                       : 1
    Format                                   : AVC
    Format/Info                              : Advanced Video Codec
    Format profile                           : [email protected]
    Format settings                          : CABAC / 4 Ref Frames
    Format settings, CABAC                   : Yes
    Format settings, RefFrames               : 4 frames
    Codec ID                                 : V_MPEG4/ISO/AVC
    Duration                                 : 1 h 59 min
    Bit rate                                 : 4 388 kb/s
    Width                                    : 1 920 pixels
    Height                                   : 1 080 pixels
    Display aspect ratio                     : 16:9
    Frame rate mode                          : Constant
    Frame rate                               : 23.976 (24000/1001) FPS
    Color space                              : YUV
    Chroma subsampling                       : 4:2:0
    Bit depth                                : 8 bits
    Scan type                                : Progressive
    Bits/(Pixel*Frame)                       : 0.088
    Stream size                              : 3.65 GiB (66%)
    Title                                    : Jumanji Welcome to the Jungle (2017) Full 1080p Latino
    Writing library                          : x264 core 148 r2708 86b7198
    Encoding settings                        : cabac=1 / ref=4 / deblock=1:0:0 / analyse=0x3:0x133 / me=esa / subme=9 / psy=1 / psy_rd=1.00:0.00 / mixed_ref=1 / me_range=16 / chroma_me=1 / trellis=2 / 8x8dct=1 / cqm=0 / deadzone=21,11 / fast_pskip=1 / chroma_qp_offset=-2 / threads=34 / lookahead_threads=2 / sliced_threads=0 / nr=0 / decimate=1 / interlaced=0 / bluray_compat=0 / constrained_intra=0 / bframes=3 / b_pyramid=2 / b_adapt=2 / b_bias=0 / direct=3 / weightb=1 / open_gop=0 / weightp=2 / keyint=240 / keyint_min=24 / scenecut=40 / intra_refresh=0 / rc_lookahead=60 / rc=crf / mbtree=1 / crf=20.0 / qcomp=0.60 / qpmin=0 / qpmax=69 / qpstep=4 / vbv_maxrate=62500 / vbv_bufsize=78125 / crf_max=0.0 / nal_hrd=none / filler=0 / ip_ratio=1.40 / aq=1:1.00
    Language                                 : English
    Default                                  : Yes
    Forced                                   : No
    Color range                              : Limited
    Color primaries                          : BT.709
    Transfer characteristics                 : BT.709
    Matrix coefficients                      : BT.709
    Statistics Tags Issue                    : mkvmerge v15.0.0 ('Duel with the Devil') 64-bit 2018-03-14 02:49:50 / mkvmerge v15.0.0 ('Duel with the Devil') 64-bit 2018-03-14 02:49:50 / UTC 2018-03-13T16:04:39Z
    FromStats_BitRate                        : 4482508
    FromStats_Duration                       : 01:59:03.136000000
    FromStats_FrameCount                     : 171264
    FromStats_StreamSize                     : 4002395917

    Audio #1
    ID                                       : 2
    Format                                   : AC-3
    Format/Info                              : Audio Coding 3
    Format settings, Endianness              : Big
    Codec ID                                 : A_AC3
    Duration                                 : 1 h 59 min
    Bit rate mode                            : Constant
    Bit rate                                 : 640 kb/s
    Channel(s)                               : 6 channels
    Channel positions                        : Front: L C R, Side: L R, LFE
    Sampling rate                            : 48.0 kHz
    Frame rate                               : 31.250 FPS (1536 SPF)
    Bit depth                                : 16 bits
    Compression mode                         : Lossy
    Stream size                              : 545 MiB (10%)
    Language                                 : Spanish
    Service kind                             : Complete Main
    Default                                  : Yes
    Forced                                   : No
    Statistics Tags Issue                    : mkvmerge v15.0.0 ('Duel with the Devil') 64-bit 2018-03-14 02:49:50 / mkvmerge v15.0.0 ('Duel with the Devil') 64-bit 2018-03-14 02:49:50 / UTC 2018-03-13T16:04:39Z
    FromStats_BitRate                        : 640000
    FromStats_Duration                       : 01:59:03.136000000
    FromStats_FrameCount                     : 223223
    FromStats_StreamSize                     : 571450880

    Audio #2
    ID                                       : 3
    Format                                   : DTS
    Format/Info                              : Digital Theater Systems
    Mode                                     : 16
    Format settings, Endianness              : Big
    Codec ID                                 : A_DTS
    Duration                                 : 1 h 59 min
    Bit rate mode                            : Constant
    Bit rate                                 : 1 509 kb/s
    Channel(s)                               : 6 channels
    Channel positions                        : Front: L C R, Side: L R, LFE
    Sampling rate                            : 48.0 kHz
    Frame rate                               : 93.750 FPS (512 SPF)
    Bit depth                                : 24 bits
    Compression mode                         : Lossy
    Stream size                              : 1.25 GiB (23%)
    Language                                 : English
    Default                                  : No
    Forced                                   : No
    Statistics Tags Issue                    : mkvmerge v15.0.0 ('Duel with the Devil') 64-bit 2018-03-14 02:49:50 / mkvmerge v15.0.0 ('Duel with the Devil') 64-bit 2018-03-14 02:49:50 / UTC 2018-03-13T16:04:39Z
    FromStats_BitRate                        : 1509000
    FromStats_Duration                       : 01:59:03.136000000
    FromStats_FrameCount                     : 669669
    FromStats_StreamSize                     : 1347374028

    Text #1
    ID                                       : 4
    Format                                   : UTF-8
    Codec ID                                 : S_TEXT/UTF8
    Codec ID/Info                            : UTF-8 Plain Text
    Title                                    : Forzado
    Language                                 : Spanish
    Default                                  : Yes
    Forced                                   : Yes
    Statistics Tags Issue                    : mkvmerge v15.0.0 ('Duel with the Devil') 64-bit 2018-03-14 02:49:50 / mkvmerge v15.0.0 ('Duel with the Devil') 64-bit 2018-03-14 02:49:50 / UTC 2018-03-13T16:04:39Z
    FromStats_BitRate                        : 0
    FromStats_Duration                       : 01:55:50.778000000
    FromStats_FrameCount                     : 2
    FromStats_StreamSize                     : 67

    Text #2
    ID                                       : 5
    Format                                   : PGS
    Muxing mode                              : zlib
    Codec ID                                 : S_HDMV/PGS
    Codec ID/Info                            : Picture based subtitle format used on BDs/HD-DVDs
    Language                                 : English
    Default                                  : No
    Forced                                   : No
    Statistics Tags Issue                    : mkvmerge v15.0.0 ('Duel with the Devil') 64-bit 2018-03-14 02:49:50 / mkvmerge v15.0.0 ('Duel with the Devil') 64-bit 2018-03-14 02:49:50 / UTC 2018-03-13T16:04:39Z
    FromStats_BitRate                        : 38745
    FromStats_Duration                       : 01:48:54.945000000
    FromStats_FrameCount                     : 3070
    FromStats_StreamSize                     : 31650299

    Text #3
    ID                                       : 6
    Format                                   : PGS
    Muxing mode                              : zlib
    Codec ID                                 : S_HDMV/PGS
    Codec ID/Info                            : Picture based subtitle format used on BDs/HD-DVDs
    Language                                 : Spanish
    Default                                  : No
    Forced                                   : No
    Statistics Tags Issue                    : mkvmerge v15.0.0 ('Duel with the Devil') 64-bit 2018-03-14 02:49:50 / mkvmerge v15.0.0 ('Duel with the Devil') 64-bit 2018-03-14 02:49:50 / UTC 2018-03-13T16:04:39Z
    FromStats_BitRate                        : 31880
    FromStats_Duration                       : 01:57:36.216000000
    FromStats_FrameCount                     : 3026
    FromStats_StreamSize                     : 28119786

    Menu
    00:00:00.000                             : :Chapter 1
    00:07:18.104                             : :Chapter 2
    00:17:15.993                             : :Chapter 3
    00:23:23.235                             : :Chapter 4
    00:29:25.055                             : :Chapter 5
    00:42:28.546                             : :Chapter 6
    00:47:11.162                             : :Chapter 7
    00:54:26.722                             : :Chapter 8
    01:03:20.839                             : :Chapter 9
    01:10:21.801                             : :Chapter 10
    01:15:51.672                             : :Chapter 11
    01:24:10.087                             : :Chapter 12
    01:28:20.295                             : :Chapter 13
    01:33:48.414                             : :Chapter 14
    01:42:22.887                             : :Chapter 15
    01:48:31.922                             : :Chapter 16

  • Peso: 5.55 GiB

Sinopsis

Veinte años después de los acontecimientos de la primera película, cuatro adolescentes son transportados al mundo mágico de Jumanji gracias a una versión en videojuego del mismo. Jugando como los personajes que eligieron, ellos deberán superar las pruebas del juego para poder ganar y regresar a casa.

Ficha técnica

Video trailer de la película

Enlaces de descarga

Rip de Bluray

Descargar Jumanji: Bienvenidos a la jungla (2017) Full 1080p Latino




Aportes de DPeliculasHDmega la pass es:dpeliculashdmega.org Aportes de CinemaniaHD la pass es:cinemaniahdd.com

Películas relacionadas

  • El Reino de los Supermanes (2019) 1080p Latino

    2019
    El Reino de los Supermanes (2019) 1080p Latino

    5.0 1h 27m 2019

    Descargar El Reino de los Supermanes (2019) 1080p Latino, Mega, Google Drive, Torrent. Superman ha muerto...

    Director: Sam Liu

    Género: Acción

    Actores: Trevor Devall

  • Campeones (2018) HD 1080p Español

    2018
    Campeones (2018) HD 1080p Español

    0.0 2h 4m 2018

    Descargar Campeones (2018) HD 1080p Español, Mega, Google Drive, Torrent. Marco, un entrenador profesional...

    Director: Javier Fesser

    Género: Castellano

    Actores: Yiyo Alonso

  • Hunter Killer (2018) HD 1080p Latino

    2018
    Hunter Killer (2018) HD 1080p Latino

    3.0 2h 2m 2018

    Descargar Hunter Killer (2018) HD 1080p Latino, Mega, Google Drive, Torrent. Un capitán de submarinos...

    Director: Donovan Marsh

    Género: Acción

    Actores: Zane Holtz

  • Sorry For Your Loss (2018) AMZN 1080p Latino

    2018
    Sorry For Your Loss (2018) AMZN 1080p Latino

    5.0 1h 40m 2018

    Sorry for Your Loss es una comedia oscura que narra la historia de una joven viuda Leigh Gibbs. Para...

    Director: Collin Friesen

    Género: Comedia

    Actores: Sandrine Holt

Comentarios 7
  • Jose Alejandro - 14 mayo, 2018

    Cual es la clave para descomprimir?

    • dpelis - 15 mayo, 2018

      cinemaniahdd.net

  • Jhefferson - 17 marzo, 2018

    Muchas Gracias 😀 son grandes 😀

  • cristian - 14 marzo, 2018

    muchas gracias en mega dice el enlace que intentas acceder no es valido en todos los links

    • Dracarys - 14 marzo, 2018

      Usar un gestor de descarga..

      • cristian - 15 marzo, 2018

        eso hago con MegaDownloader y con Mipony y en ninguno de los dos no se pegan los enlaces

        • dpelis - 16 marzo, 2018

          seleccionar los enlaces y copiar