×

¿Problemas para descargar con Mozilla, EDGE? Deshabilita la opción "Abrir vinculos en una pestaña nueva" tal como lo muestra ésta imagen.

Jumanji (1995) REMUX 1080p Latino – CMHDD

269 vistas

Información de Jumanji (1995) REMUX 1080p Latino – CMHDD

Datos de la película

  • Calidad: Full 1080p
  • Audio: Español Latino AC3 5.1 BLURAY - Ingles DTS 5.1 BLURAY
  • Subtitulos: Español Latino PGS
  • Resolución: 1920x1080p
  • Formato: MKV
  • Codec: H.264
  • Encoder: Dracarys
  • Mediainfo: Clic para Mostrar Datos Ver
  • Format                      : Matroska
    Format version              : Version 4
    File size                   : 21.0 GiB
    Duration                    : 1 h 44 min
    Overall bit rate mode       : Variable
    Overall bit rate            : 28.9 Mb/s
    Movie name                  : Jumanji (1995) REMUX 1080p Latino - CMHDD
    Encoded date                : UTC 2023-03-08 07:11:29
    Writing application         : mkvmerge v47.0.0 ('Black Flag') 64-bit
    Writing library             : libebml v1.3.10 + libmatroska v1.5.2
    Cover                       : Yes
    Attachments                 : cover.jpg

    Video
    ID                          : 1
    ID in the original source m : 4113 (0x1011)
    Format                      : AVC
    Format/Info                 : Advanced Video Codec
    Format profile              : High@L4.1
    Format settings             : CABAC / 2 Ref Frames
    Format settings, CABAC      : Yes
    Format settings, Reference  : 2 frames
    Format settings, GOP        : M=1, N=10
    Codec ID                    : V_MPEG4/ISO/AVC
    Duration                    : 1 h 44 min
    Bit rate mode               : Variable
    Bit rate                    : 25.9 Mb/s
    Width                       : 1 920 pixels
    Height                      : 1 080 pixels
    Display aspect ratio        : 16:9
    Frame rate mode             : Constant
    Frame rate                  : 23.976 (24000/1001) FPS
    Color space                 : YUV
    Chroma subsampling          : 4:2:0
    Bit depth                   : 8 bits
    Scan type                   : Progressive
    Bits/(Pixel*Frame)          : 0.520
    Stream size                 : 18.8 GiB (90%)
    Default                     : Yes
    Forced                      : No
    Original source medium      : Blu-ray

    Audio #1
    ID                          : 2
    ID in the original source m : 4352 (0x1100)
    Format                      : DTS XLL
    Format/Info                 : Digital Theater Systems
    Commercial name             : DTS-HD Master Audio
    Codec ID                    : A_DTS
    Duration                    : 1 h 44 min
    Bit rate mode               : Variable
    Bit rate                    : 2 301 kb/s
    Channel(s)                  : 6 channels
    Channel layout              : C L R Ls Rs LFE
    Sampling rate               : 48.0 kHz
    Frame rate                  : 93.750 FPS (512 SPF)
    Bit depth                   : 16 bits
    Compression mode            : Lossless
    Stream size                 : 1.67 GiB (8%)
    Language                    : English
    Default                     : No
    Forced                      : No
    Original source medium      : Blu-ray

    Audio #2
    ID                          : 3
    ID in the original source m : 4356 (0x1104)
    Format                      : AC-3
    Format/Info                 : Audio Coding 3
    Commercial name             : Dolby Digital
    Codec ID                    : A_AC3
    Duration                    : 1 h 44 min
    Bit rate mode               : Constant
    Bit rate                    : 640 kb/s
    Channel(s)                  : 6 channels
    Channel layout              : L R C LFE Ls Rs
    Sampling rate               : 48.0 kHz
    Frame rate                  : 31.250 FPS (1536 SPF)
    Compression mode            : Lossy
    Delay relative to video     : 15 ms
    Stream size                 : 477 MiB (2%)
    Language                    : Spanish
    Service kind                : Complete Main
    Default                     : Yes
    Forced                      : No
    Original source medium      : Blu-ray

    Text #1
    ID                          : 4
    ID in the original source m : 4615 (0x1207)
    Format                      : PGS
    Muxing mode                 : zlib
    Codec ID                    : S_HDMV/PGS
    Codec ID/Info               : Picture based subtitle format used on BDs/HD-DVDs
    Duration                    : 1 h 37 min
    Bit rate                    : 22.8 kb/s
    Frame rate                  : 0.317 FPS
    Count of elements           : 1848
    Stream size                 : 15.9 MiB (0%)
    Language                    : Spanish
    Default                     : No
    Forced                      : No
    Original source medium      : Blu-ray

    Text #2
    ID                          : 5
    ID in the original source m : 4622 (0x120E)
    Format                      : PGS
    Muxing mode                 : zlib
    Codec ID                    : S_HDMV/PGS
    Codec ID/Info               : Picture based subtitle format used on BDs/HD-DVDs
    Duration                    : 1 h 41 min
    Bit rate                    : 60.5 kb/s
    Frame rate                  : 0.544 FPS
    Count of elements           : 3316
    Stream size                 : 43.9 MiB (0%)
    Language                    : Spanish
    Default                     : No
    Forced                      : No
    Original source medium      : Blu-ray

    Menu
    00:00:00.000                : en:Capítulo 01
    00:08:17.205                : en:Capítulo 02
    00:15:17.541                : en:Capítulo 03
    00:20:29.019                : en:Capítulo 04
    00:28:11.189                : en:Capítulo 05
    00:33:07.110                : en:Capítulo 06
    00:41:06.755                : en:Capítulo 07
    00:45:01.323                : en:Capítulo 08
    00:48:23.358                : en:Capítulo 09
    00:55:13.018                : en:Capítulo 10
    01:00:24.787                : en:Capítulo 11
    01:08:21.138                : en:Capítulo 12
    01:16:12.609                : en:Capítulo 13
    01:23:27.585                : en:Capítulo 14
    01:28:55.955                : en:Capítulo 15
    01:34:51.268                : en:Capítulo 16

  • Peso: 21.0 GiB

Sinopsis

Alan Parris queda atrapado en un juego de mesa mágico y muy antiguo, Jumanji, durante 25 años. Cuando finalmente es liberado por dos niños, una manada de animales exóticos también es liberada. Alan deberá salvar a su pueblo de la destrucción.

Ficha técnica

Video trailer de la película

Enlaces de descarga

Rip de Bluray

Descargar Jumanji (1995) REMUX 1080p Latino – CMHDD


Aportes de DPeliculasHDmega la pass es:dpeliculashdmega.org Aportes de CinemaniaHD la pass es:cinemaniahdd.com Aportes recientes:cinemaniahdd.net
Guardado en : Aventura , Familia , Fantasía

Películas relacionadas

  • Wonka (2023) Full HD 1080p Latino-CMHDD

    Wonka (2023) Full HD 1080p Latino-CMHDD

    2023
    Wonka (2023) Full HD 1080p Latino-CMHDD

    1h 57m 2023

    Descargar Wonka (2023) Full HD 1080p Latino-CMHDD. Basada en el personaje que protagoniza "Charlie y...

    Director: Zoe Morgan

    Género: Comedia

    Actores: Tracy Ifeachor

  • Wonka (2023) 1080p Latino-CMHDD

    Wonka (2023) 1080p Latino-CMHDD

    2023
    Wonka (2023) 1080p Latino-CMHDD

    1h 57m 2023

    Descargar Wonka (2023) 1080p Latino-CMHDD. Basada en el personaje que protagoniza "Charlie y la fábrica...

    Director: Zoe Morgan

    Género: Comedia

    Actores: Tracy Ifeachor

  • Wonka (2023) REMUX 1080p Latino-CMHDD

    Wonka (2023) REMUX 1080p Latino-CMHDD

    2023
    Wonka (2023) REMUX 1080p Latino-CMHDD

    1h 57m 2023

    Descargar Wonka (2023) REMUX 1080p Latino-CMHDD. Basada en el personaje que protagoniza "Charlie y la...

    Director: Zoe Morgan

    Género: Comedia

    Actores: Tracy Ifeachor

  • ¡Patos! (2023) HD 1080p Latino

    ¡Patos! (2023) HD 1080p Latino

    2023
    ¡Patos! (2023) HD 1080p Latino

    1h 23m 2023

    Descargar ¡Patos! (2023) HD 1080p Latino. Después de que una familia de patos migratorios aterriza...

    Director: Guy-Laurent Homsy

    Género: Acción

    Actores: Zeno Robinson

  • ¡Patos! (2023) PLACEBO Full HD 1080p Latino

    ¡Patos! (2023) PLACEBO Full HD 1080p Latino

    2023
    ¡Patos! (2023) PLACEBO Full HD 1080p Latino

    1h 23m 2023

    Descargar ¡Patos! (2023) PLACEBO Full HD 1080p Latino. Después de que una familia de patos migratorios...

    Director: Guy-Laurent Homsy

    Género: Acción

    Actores: Zeno Robinson

descargar Jumanji (1995) REMUX 1080p Latino – CMHDD Full 1080p 1080p gratis, Jumanji (1995) REMUX 1080p Latino – CMHDD Full 1080p mega 1 link, Jumanji (1995) REMUX 1080p Latino – CMHDD Full 1080p pelicula completa, descargar Jumanji (1995) REMUX 1080p Latino – CMHDD Full 1080p gratis en mega.

Jumanji (1995) REMUX 1080p Latino – CMHDD pelicula full hd, Jumanji (1995) REMUX 1080p Latino – CMHDD mega latino, Jumanji (1995) REMUX 1080p Latino – CMHDD 4k latino, Jumanji (1995) REMUX 1080p Latino – CMHDD pelicula completa, Jumanji (1995) REMUX 1080p Latino – CMHDD descargar gratis, descargar Jumanji (1995) REMUX 1080p Latino – CMHDD pelicula latino, Jumanji (1995) REMUX 1080p Latino – CMHDD 1 link mega, Jumanji (1995) REMUX 1080p Latino – CMHDD 1 link google drive, Jumanji (1995) REMUX 1080p Latino – CMHDD hd 1080p latino.
Comentarios 0